<?xml version="1.0" standalone="no"?>
<!DOCTYPE svg PUBLIC "-//W3C//DTD SVG 1.1//EN" "http://www.w3.org/Graphics/SVG/1.1/DTD/svg11.dtd">
<svg xmlns="http://www.w3.org/2000/svg">
<defs >
<font id="Dosis" horiz-adv-x="435" ><font-face
    font-family="Dosis ExtraLight Medium"
    units-per-em="1000"
    panose-1="0 0 0 0 0 0 0 0 0 0"
    ascent="1027"
    descent="-237"
    alphabetic="0" />
<glyph unicode=" " horiz-adv-x="200" />
<glyph unicode="!" horiz-adv-x="207" d="M104 175Q91 175 81 182T71 202Q71 280 68 365T62 535T59 698Q59 719 72 730T104 741Q122 741 135 730T149 698Q149 621 146 536T140 365T136 202Q136 189 125 182T104 175ZM105 -6Q82 -6 67 10T52 46Q52 68 67 83T105
99Q125 99 140 84T156 46Q156 26 141 10T105 -6Z" />
<glyph unicode="&quot;" horiz-adv-x="279" d="M207 572Q193 572 187 580T181 598L171 743Q171 755 182 761T207 768Q220 768 232 762T244 743L234 598Q234 588 228 580T207 572ZM71 572Q57 572 51 580T45 598L35 743Q35 755 46 761T71 768Q84 768 96 762T108
743L98 598Q98 588 92 580T71 572Z" />
<glyph unicode="#" horiz-adv-x="615" d="M159 33Q145 33 132 41T118 67L146 244H55Q42 244 35 252T28 275Q28 289 34 298T52 308H158L182 457H91Q77 457 70 466T63 489Q63 503 70 512T88 521H195L223 694Q225 703 235 708T256 713Q273 713 284 705T296 678L270
521H392L420 694Q422 703 432 708T454 713Q470 713 481 705T493 678L467 521H559Q570 521 579 513T588 489Q588 476 580 467T563 457H456L431 308H524Q534 308 543 299T553 275Q553 262 545 253T527 244H420L389 55Q387 46 377 40T355 33Q346 33 337 37T321 48T315
67L343 244H222L192 56Q190 45 180 39T159 33ZM234 308H355L380 457H259L234 308Z" />
<glyph unicode="$" horiz-adv-x="507" d="M266 -52Q255 -52 248 -46T240 -31V2Q177 3 132 22T61 68T36 115Q36 125 41 135T55 153T73 161Q84 161 95 150T124 123T169 96T240 81V347Q206 358 174 372T114 406T70 459T54 539Q54 586 70 618T113 671T173 703T240
717V747Q240 756 247 762T266 768Q275 768 283 762T292 747V719Q318 718 345 713T396 700T434 680T449 653Q449 645 445 635T433 616T413 607Q403 607 389 615T351 633T292 644V416Q323 405 354 390T411 351T452 293T467 206Q467 115 418 66T292 5V-31Q292 -39
284 -45T266 -52ZM288 83Q335 91 361 119T387 198Q387 236 374 260T338 301T288 328V83ZM244 433V643Q214 640 189 630T149 599T134 547Q134 513 149 492T189 457T244 433Z" />
<glyph unicode="%" horiz-adv-x="767" d="M201 -30Q187 -30 178 -21T169 0Q169 7 172 13L547 755Q554 770 571 770Q583 770 594 761T606 737Q606 730 602 723L229 -14Q225 -22 217 -26T201 -30ZM166 345Q111 345 74 372T37 463V613Q37 677 74 704T166 731Q203
731 232 720T278 682T295 613V463Q295 420 278 394T232 357T166 345ZM166 398Q198 398 216 414T235 463V613Q235 646 217 662T166 678Q134 678 116 662T98 613V463Q98 430 116 414T166 398ZM601 -3Q546 -3 509 24T472 115V265Q472 329 509 356T601 383Q638 383
667 372T713 334T730 265V115Q730 72 713 46T667 9T601 -3ZM601 50Q633 50 651 66T670 115V265Q670 298 652 314T601 330Q569 330 551 314T533 265V115Q533 82 551 66T601 50Z" />
<glyph unicode="&amp;" horiz-adv-x="619" d="M267 -10Q194 -10 141 20T60 98T32 205Q32 255 51 293T100 360T164 405Q135 440 111 480T87 575Q87 630 112 669T181 728T275 748Q332 748 370 730T428 687T448 646Q448 631 436 619T408 607Q397 607 387 618T365
643T332 668T278 679Q229 679 200 650T170 570Q170 537 184 508T221 452T266 401L457 193Q477 239 481 285T487 362Q489 378 496 385T525 392Q546 392 553 382T561 350Q561 329 557 294T541 218T509 139L598 44Q601 40 602 36T604 27Q604 14 592 3T566 -8Q560 -8
555 -6T544 3L468 83Q435 43 386 17T267 -10ZM278 65Q329 65 362 85T417 136L212 354Q191 341 169 323T132 278T117 212Q117 173 135 139T190 85T278 65Z" />
<glyph unicode="&apos;" horiz-adv-x="143" d="M71 572Q57 572 51 580T45 598L35 743Q35 755 46 761T71 768Q84 768 96 762T108 743L98 598Q98 588 92 580T71 572Z" />
<glyph unicode="(" horiz-adv-x="310" d="M250 -20Q212 -20 177 -9T115 23T73 78T57 155V579Q57 619 73 653T116 713T178 753T251 768Q274 768 283 757T292 731Q292 714 284 704T263 693Q225 693 198 676T156 633T141 579V155Q141 114 160 93T208 63T263 55Q281
55 286 43T292 17Q292 1 284 -9T250 -20Z" />
<glyph unicode=")" horiz-adv-x="310" d="M60 -20Q36 -20 27 -10T18 17Q18 31 23 43T47 55Q74 55 102 63T149 92T169 155V579Q169 607 155 633T113 676T47 693Q34 693 26 703T18 731Q18 746 27 757T59 768Q97 768 132 754T194 714T237 654T253 579V155Q253 111
238 78T195 24T133 -9T60 -20Z" />
<glyph unicode="*" horiz-adv-x="446" d="M128 366Q121 366 112 369T97 380T90 397Q90 408 98 417L174 520L52 556Q42 559 37 567T32 586Q32 599 41 609T65 620Q66 620 68 620T74 619L196 577L191 702Q191 716 201 723T223 731Q236 731 245 724T255 702L251 575L373
619Q377 620 382 620Q396 620 404 609T413 584Q413 575 408 567T393 556L272 523L351 416Q356 409 356 399Q356 384 345 375T320 366Q315 366 309 368T297 378L223 487L149 377Q145 370 140 368T128 366Z" />
<glyph unicode="+" horiz-adv-x="438" d="M220 51Q205 51 194 59T183 80V205H59Q46 205 38 215T30 240Q30 256 38 266T59 276H183V400Q183 411 194 420T220 430Q236 430 245 421T255 400V276H379Q390 276 399 266T409 240Q409 225 400 215T379 205H255V80Q255
67 246 59T220 51Z" />
<glyph unicode="," horiz-adv-x="177" d="M75 -89Q65 -89 55 -83T45 -65Q45 -59 48 -54L68 -2Q54 4 45 17T36 46Q36 68 51 83T88 99Q108 99 124 85T140 46Q140 43 139 38T134 20T121 -14T97 -75Q94 -82 88 -85T75 -89Z" />
<glyph unicode="-" horiz-adv-x="403" d="M71 205Q59 205 51 215T42 240Q42 256 50 266T71 276H331Q343 276 352 266T361 240Q361 225 352 215T331 205H71Z" />
<glyph unicode="." horiz-adv-x="176" d="M89 -6Q66 -6 51 10T36 46Q36 68 51 83T89 99Q109 99 124 84T140 46Q140 26 125 10T89 -6Z" />
<glyph unicode="/" horiz-adv-x="477" d="M52 -30Q38 -30 29 -21T20 0Q20 7 23 13L398 755Q405 770 423 770Q435 770 446 761T457 737Q457 730 454 723L80 -14Q76 -22 69 -26T52 -30Z" />
<glyph unicode="0" horiz-adv-x="540" d="M270 -6Q209 -6 161 15T84 84T55 212V513Q55 593 83 640T160 709T270 731Q330 731 379 710T457 641T486 513V212Q486 132 457 85T379 16T270 -6ZM270 70Q331 70 366 104T402 212V513Q402 586 367 620T270 655Q208 655
174 621T139 513V212Q139 139 173 105T270 70ZM270 322Q253 322 242 333T231 362Q231 379 242 390T270 401Q288 401 298 390T309 362Q309 345 299 334T270 322Z" />
<glyph unicode="1" horiz-adv-x="249" d="M141 0Q125 0 112 7T99 30V606L62 551Q57 545 52 543T41 540Q28 540 20 551T11 575Q11 584 16 594T28 610L121 719Q125 725 131 728T146 732Q160 732 171 725T183 702V30Q183 15 170 8T141 0Z" />
<glyph unicode="2" horiz-adv-x="483" d="M70 0Q58 0 45 8T32 30V127Q32 168 56 202T118 268T198 329T279 390T341 457T365 533Q365 562 352 589T312 635T242 653Q195 653 163 626T130 544Q130 531 119 521T86 511Q68 511 58 521T48 560Q48 611 74 649T145 709T243
731Q301 731 347 706T421 637T449 536Q449 483 425 440T364 362T284 298T204 241T142 186T118 127V76H426Q438 76 446 65T455 38Q455 23 447 12T426 0H70Z" />
<glyph unicode="3" horiz-adv-x="497" d="M240 -6Q185 -6 145 9T78 50T39 105T26 164Q26 188 35 195T65 203Q91 203 100 195T109 170Q109 154 116 137T138 104T178 80T239 70Q306 70 339 103T373 208V227Q373 292 337 320T240 349Q224 349 218 360T211 384Q211
397 217 408T239 419Q275 419 301 429T341 465T355 539Q355 600 328 628T243 656Q209 656 186 647T150 624T131 593T126 560Q126 544 118 534T86 523Q68 523 59 527T47 540T43 566Q43 589 52 617T83 671T145 714T245 731Q301 731 344 714T411 659T436 554Q436 488
414 446T355 386Q399 368 428 330T457 227V208Q457 130 428 84T350 16T240 -6Z" />
<glyph unicode="4" horiz-adv-x="460" d="M328 0Q312 0 299 7T286 30V168H36Q21 168 13 177T5 201Q5 206 6 211T10 220L256 707Q263 720 273 725T294 731Q303 731 312 727T328 716T336 698Q336 692 332 684L112 248H286V416Q286 431 299 438T328 445Q344 445 357
438T370 416V248H422Q437 248 444 236T452 208Q452 193 444 181T422 168H370V30Q370 15 357 8T328 0Z" />
<glyph unicode="5" horiz-adv-x="484" d="M240 -6Q172 -6 123 18T49 82T24 167Q24 190 35 198T66 207Q90 207 99 198T108 173Q108 140 125 117T173 82T239 70Q301 70 336 104T371 210V229Q371 298 336 332T240 366H98Q75 366 67 375T59 399Q59 405 59 410T61 421L82
701Q84 715 89 723T104 731H392Q406 731 412 720T419 693Q419 679 413 667T392 655H155L140 436H240Q301 436 349 416T426 350T455 229V210Q455 131 426 84T349 16T240 -6Z" />
<glyph unicode="6" horiz-adv-x="527" d="M271 -6Q210 -6 161 15T84 85T55 212V513Q55 592 84 640T162 709T274 731Q326 731 366 716T432 676T472 620T486 557Q486 536 476 528T446 520Q429 520 416 527T402 553Q402 585 385 607T338 642T272 655Q209 655 174
621T139 513V373Q164 406 202 420T285 435Q340 435 385 417T458 354T486 233V212Q486 133 457 85T380 16T271 -6ZM271 66Q332 66 367 100T402 208V229Q402 303 367 334T270 365Q210 365 175 336T139 238V208Q139 135 174 101T271 66Z" />
<glyph unicode="7" horiz-adv-x="470" d="M131 -2Q118 -2 106 3T87 17T79 38Q79 46 84 55L372 598V655H109V550Q109 537 96 529T66 520Q50 520 38 528T25 550V701Q25 712 36 721T63 731H418Q430 731 443 722T456 701V608Q456 599 452 587T442 565L157 12Q150 -2 131 -2Z" />
<glyph unicode="8" horiz-adv-x="511" d="M256 -6Q196 -6 147 14T69 80T40 200V212Q40 289 71 334T152 399Q112 415 87 453T62 555Q62 621 87 659T157 714T256 731Q312 731 356 715T425 660T451 555Q451 492 426 454T360 399Q411 380 441 335T471 212V200Q471
126 443 81T366 15T256 -6ZM257 66Q318 66 352 101T387 208V224Q387 295 352 328T256 362Q195 362 160 329T124 224V208Q124 135 159 101T257 66ZM256 434Q309 434 339 460T369 547Q369 607 339 633T256 659Q203 659 173 633T143 547Q143 487 173 461T256 434Z"
/>
<glyph unicode="9" horiz-adv-x="528" d="M254 -6Q201 -6 161 9T95 49T56 105T42 168Q42 189 52 197T81 205Q98 205 111 198T125 172Q125 140 143 118T190 83T256 70Q319 70 354 104T389 212V352Q364 320 326 305T243 290Q187 290 142 308T69 371T42 492V513Q42
592 70 640T147 709T257 731Q318 731 367 710T444 640T473 513V212Q473 133 444 85T366 16T254 -6ZM257 360Q318 360 353 389T389 487V517Q389 590 354 624T257 659Q195 659 161 625T126 517V496Q126 422 160 391T257 360Z" />
<glyph unicode=":" horiz-adv-x="206" d="M103 317Q81 317 66 333T51 370Q51 391 66 406T103 422Q124 422 139 407T155 370Q155 349 140 333T103 317ZM103 -6Q81 -6 66 10T51 46Q51 68 66 83T103 99Q124 99 139 84T155 46Q155 26 140 10T103 -6Z" />
<glyph unicode=";" horiz-adv-x="207" d="M89 -89Q79 -89 69 -83T59 -65Q59 -59 61 -54L82 -2Q68 4 59 17T50 46Q50 68 65 83T101 99Q122 99 138 85T154 46Q154 43 153 38T148 20T135 -14T110 -75Q107 -82 101 -85T89 -89ZM105 317Q82 317 68 333T53 370Q53 391
67 406T105 422Q126 422 141 407T157 370Q157 349 142 333T105 317Z" />
<glyph unicode="&lt;" horiz-adv-x="408" d="M324 65Q316 65 311 69L44 244Q35 249 31 258T26 277Q26 286 30 295T44 311L311 486Q316 490 324 490Q337 490 349 479T362 450Q362 433 350 426L124 277L350 129Q362 121 362 104Q362 88 350 77T324 65Z" />
<glyph unicode="=" horiz-adv-x="438" d="M92 327Q79 327 71 337T63 363Q63 378 71 388T92 399H346Q357 399 366 389T376 363Q376 347 367 337T346 327H92ZM92 124Q79 124 71 134T63 160Q63 175 71 185T92 196H346Q357 196 366 186T376 160Q376 144 367 134T346 124H92Z" />
<glyph unicode="&gt;" horiz-adv-x="408" d="M84 65Q71 65 59 76T46 104Q46 121 58 129L283 277L58 426Q46 433 46 450Q46 468 58 479T84 490Q92 490 97 486L364 311Q372 305 377 296T382 277Q382 268 378 259T364 244L97 69Q92 65 84 65Z" />
<glyph unicode="?" horiz-adv-x="411" d="M177 175Q161 175 153 183T145 212Q145 265 151 297T169 349T193 381Q208 397 227 413T265 450T296 497T308 559Q308 613 275 644T182 675Q148 675 128 667T96 647T76 628T55 620Q45 620 34 628T23 653Q23 671 43 691T100
726T185 741Q248 741 291 718T356 655T379 566Q379 521 364 488T328 428T285 382T250 348Q231 330 223 310T213 263T211 202Q211 191 204 183T177 175ZM178 -6Q155 -6 141 10T126 46Q126 68 141 83T178 99Q199 99 214 84T229 46Q229 26 214 10T178 -6Z" />
<glyph unicode="@" horiz-adv-x="725" d="M332 -111Q277 -111 227 -92T137 -33T74 69T51 214Q51 311 84 389T189 514T373 561Q474 561 544 523T650 413T687 236Q687 182 675 134T634 56T559 26Q520 26 493 46T459 93Q434 65 407 50T336 34Q304 34 275 45T229 80T211
145Q211 191 235 216T304 251T408 261H449V279Q449 320 427 339T355 359Q323 359 306 353T278 341T259 334Q252 334 247 340T238 354T235 368Q235 383 255 395T305 414T366 421Q410 421 443 406T495 363T514 292V125Q517 101 531 89T564 76Q585 76 597 90T617 128T626
177T629 226Q629 358 566 431T372 505Q297 505 247 482T166 418T123 324T110 215Q110 162 121 114T159 27T231 -34T341 -57Q384 -57 411 -50T454 -35T480 -27Q491 -27 497 -36T504 -53Q504 -65 488 -75T446 -94T389 -106T332 -111ZM348 85Q379 85 402 98T438 129T451
167V216H415Q376 216 346 211T298 190T281 145Q281 114 300 100T348 85Z" />
<glyph unicode="A" horiz-adv-x="548" d="M67 0Q57 0 45 4T25 17T17 35Q17 39 18 43L223 708Q227 723 242 730T274 737Q292 737 307 730T326 708L530 43Q532 39 532 36Q532 26 524 18T503 5T480 0Q469 0 461 4T450 19L405 168H142L99 19Q96 9 88 5T67 0ZM162 237H386L274
613L162 237Z" />
<glyph unicode="B" horiz-adv-x="545" d="M109 0Q92 0 82 8T71 29V701Q71 716 83 723T109 731H281Q336 731 382 718T456 667T484 560Q484 497 461 455T399 396Q430 384 453 364T489 311T502 226V208Q502 131 476 86T405 20T304 0H109ZM155 76H290Q351 76 384 109T418
213V230Q418 302 385 331T290 361H155V76ZM155 431H280Q342 431 371 458T400 548Q400 589 385 612T342 645T277 655H155V431Z" />
<glyph unicode="C" horiz-adv-x="532" d="M278 -6Q220 -6 171 15T93 85T64 212V513Q64 592 93 640T172 709T279 731Q347 731 395 708T469 646T495 557Q495 529 485 520T453 511Q433 511 423 519T411 540Q410 555 406 574T388 612T349 643T281 655Q217 655 183
621T148 513V212Q148 139 183 105T284 70Q326 70 350 82T387 112T404 150T411 189Q412 204 423 211T453 218Q474 218 484 209T495 171Q495 122 469 82T394 18T278 -6Z" />
<glyph unicode="D" horiz-adv-x="566" d="M109 0Q92 0 82 8T71 29V702Q71 714 81 722T109 731H286Q347 731 396 710T473 641T502 513V218Q502 138 474 91T396 22T286 0H109ZM155 76H286Q348 76 383 110T418 218V513Q418 586 383 620T286 655H155V76Z" />
<glyph unicode="E" horiz-adv-x="514" d="M109 0Q95 0 83 7T71 30V701Q71 716 83 723T109 731H465Q481 731 487 719T494 694Q494 679 487 667T465 655H155V401H311Q325 401 332 390T340 365Q340 353 334 342T311 331H155V76H465Q479 76 486 65T494 37Q494 24 488
12T465 0H109Z" />
<glyph unicode="F" horiz-adv-x="499" d="M113 0Q98 0 85 7T71 29V701Q71 716 83 723T109 731H462Q477 731 484 719T491 694Q491 679 484 667T462 655H155V401H312Q326 401 333 390T341 365Q341 353 334 342T312 331H155V29Q155 14 142 7T113 0Z" />
<glyph unicode="G" horiz-adv-x="548" d="M279 -6Q218 -6 170 15T93 85T64 212V513Q64 592 92 640T169 709T277 731Q343 731 391 709T467 646T495 552Q495 528 484 520T453 511Q436 511 424 517T411 540Q407 575 393 600T351 640T279 655Q217 655 183 621T148
513V212Q148 139 182 105T279 70Q341 70 376 104T411 212V314H292Q278 314 271 325T263 349Q263 362 270 373T292 384H466Q480 384 487 375T495 353V212Q495 133 467 85T389 16T279 -6Z" />
<glyph unicode="H" horiz-adv-x="582" d="M113 0Q98 0 85 7T71 30V702Q71 717 84 724T113 731Q129 731 142 724T155 702V414H426V702Q426 717 439 724T468 731Q484 731 497 724T510 702V30Q510 15 497 8T468 0Q453 0 440 7T426 30V344H155V30Q155 15 142 8T113 0Z" />
<glyph unicode="I" horiz-adv-x="227" d="M113 0Q98 0 85 7T71 30V702Q71 717 84 724T113 731Q129 731 142 724T155 702V30Q155 15 142 8T113 0Z" />
<glyph unicode="J" horiz-adv-x="517" d="M236 -6Q171 -6 122 17T46 81T18 177Q18 201 29 209T60 218Q76 218 88 212T102 189Q103 155 118 128T162 85T233 70Q296 70 330 104T365 212V655H235Q221 655 214 667T206 694Q206 707 212 719T235 731H411Q426 731 437
724T449 701V212Q449 133 421 85T344 16T236 -6Z" />
<glyph unicode="K" horiz-adv-x="531" d="M113 0Q98 0 85 7T71 30V702Q71 717 84 724T113 731Q129 731 142 724T155 702V371L424 719Q433 731 449 731Q460 731 471 725T489 709T496 688Q496 684 495 679T490 670L286 415L523 55Q528 48 528 40Q528 29 521 20T503
4T479 -2Q471 -2 463 2T449 15L230 344L155 251V30Q155 15 142 8T113 0Z" />
<glyph unicode="L" horiz-adv-x="468" d="M109 0Q95 0 83 7T71 30V702Q71 717 84 724T113 731Q129 731 142 724T155 702V76H429Q443 76 449 65T456 38Q456 24 450 12T429 0H109Z" />
<glyph unicode="M" horiz-adv-x="677" d="M113 0Q98 0 85 7T71 30V690Q71 713 84 722T113 731Q129 731 140 725T161 708T180 678L338 377L496 678Q506 696 515 707T536 725T563 731Q580 731 592 722T605 690V30Q605 15 592 8T563 0Q547 0 534 7T521 30V555L369
271Q362 259 354 254T337 248Q330 248 322 253T306 271L155 559V30Q155 15 142 8T113 0Z" />
<glyph unicode="N" horiz-adv-x="582" d="M113 0Q98 0 85 7T71 30V702Q71 718 84 724T113 731Q129 731 140 725T160 708T178 678L426 191V702Q426 717 439 724T468 731Q484 731 497 724T510 702V30Q510 15 497 8T468 0Q452 0 439 11T416 38L155 541V30Q155 15
142 8T113 0Z" />
<glyph unicode="O" horiz-adv-x="559" d="M279 -6Q218 -6 170 15T93 84T64 212V513Q64 593 92 640T169 709T279 731Q340 731 389 710T466 641T495 513V212Q495 132 467 85T389 16T279 -6ZM279 70Q341 70 376 104T411 212V513Q411 586 376 620T279 655Q217 655
183 621T148 513V212Q148 139 182 105T279 70Z" />
<glyph unicode="P" horiz-adv-x="535" d="M113 0Q98 0 85 7T71 30V702Q71 714 80 722T105 731H294Q354 731 402 710T478 641T506 515V506Q506 428 478 380T400 311T290 289H155V30Q155 15 142 8T113 0ZM155 359H290Q352 359 387 394T422 501V513Q422 586 387 620T290
655H155V359Z" />
<glyph unicode="Q" horiz-adv-x="559" d="M280 -109Q268 -109 259 -102T250 -79V-4Q196 0 154 23T88 92T64 212V513Q64 593 92 640T169 709T279 731Q340 731 389 710T466 641T495 513V212Q495 139 471 93T405 23T310 -4V-79Q310 -94 301 -101T280 -109ZM250 74V142Q250
157 259 164T280 171Q291 171 300 164T310 142V75Q357 82 384 115T411 212V513Q411 586 376 620T279 655Q217 655 183 621T148 513V212Q148 149 174 115T250 74Z" />
<glyph unicode="R" horiz-adv-x="539" d="M459 -2Q447 -2 438 8T421 31L271 324H155V30Q155 15 142 8T113 0Q98 0 85 7T71 30V702Q71 714 79 722T101 731H284Q345 731 395 713T476 651T506 531Q506 470 487 430T433 368T357 336L505 55Q507 51 508 48T509 41Q509
30 502 20T483 4T459 -2ZM155 394H284Q346 394 384 424T422 525Q422 596 384 625T284 655H155V394Z" />
<glyph unicode="S" horiz-adv-x="502" d="M245 -8Q181 -8 133 11T59 57T33 105Q33 115 38 125T52 143T70 151Q82 151 93 139T122 111T168 82T241 70Q283 70 314 83T362 124T380 194Q380 237 362 264T315 309T251 341T181 369T116 405T69 461T51 547Q51 602 71
638T124 695T195 724T271 733Q298 733 328 729T385 717T429 697T446 667Q446 659 442 649T430 630T410 621Q399 621 383 630T341 649T271 659Q235 659 204 649T154 616T135 555Q135 519 153 496T200 458T264 431T334 402T398 361T446 299T464 202Q464 130 436 84T358
15T245 -8Z" />
<glyph unicode="T" horiz-adv-x="490" d="M245 0Q229 0 216 7T203 30V653H41Q28 653 20 665T12 693Q12 707 19 719T41 731H449Q464 731 471 719T478 693Q478 678 471 666T449 653H287V30Q287 15 274 8T245 0Z" />
<glyph unicode="U" horiz-adv-x="572" d="M286 -6Q224 -6 175 15T97 84T68 212V702Q68 717 80 724T110 731Q126 731 139 724T152 702V212Q152 139 187 105T286 70Q349 70 384 104T420 212V702Q420 717 433 724T462 731Q478 731 491 724T504 702V212Q504 132 475
85T397 16T286 -6Z" />
<glyph unicode="V" horiz-adv-x="547" d="M274 -6Q257 -6 242 1T222 23L17 688Q16 692 16 696Q16 706 24 714T44 726T67 731Q78 731 86 727T98 712L274 118L449 712Q452 722 460 726T479 731Q491 731 503 726T523 714T531 695Q531 694 531 692T530 688L326 23Q322
9 307 2T274 -6Z" />
<glyph unicode="W" horiz-adv-x="811" d="M268 -6Q251 -6 236 1T216 23L18 688Q17 692 17 697Q17 707 25 714T44 726T67 731Q78 731 87 727T99 712L268 118L363 484Q367 498 379 504T406 510Q421 510 433 504T448 484L544 118L713 712Q716 722 724 726T744 731Q756
731 767 727T787 715T795 697Q795 692 793 688L597 23Q592 9 577 2T544 -6Q527 -6 512 1T493 23L406 353L320 23Q316 9 301 2T268 -6Z" />
<glyph unicode="X" horiz-adv-x="504" d="M72 -2Q61 -2 49 3T29 18T20 39Q20 47 25 57L198 366L29 673Q22 685 22 695Q22 707 30 715T49 728T74 733Q87 733 96 724T110 701L252 435L394 701Q400 714 409 723T431 733Q443 733 455 729T474 716T482 695Q482 685
475 673L306 366L479 57Q484 47 484 39Q484 28 476 19T456 4T432 -2Q421 -2 413 7T400 26L252 299L105 26Q100 16 92 7T72 -2Z" />
<glyph unicode="Y" horiz-adv-x="541" d="M270 0Q255 0 242 7T228 30V283Q228 289 226 293L19 679Q17 684 16 688T15 696Q15 706 23 714T42 726T65 731Q76 731 82 726T95 709L270 366L446 709Q452 720 459 725T476 731Q487 731 498 727T518 714T526 696Q526 693
525 689T522 679L315 293Q312 289 312 283V30Q312 15 299 8T270 0Z" />
<glyph unicode="Z" horiz-adv-x="493" d="M49 0Q35 0 28 7T20 27Q20 41 28 56L351 655H63Q49 655 42 666T34 693Q34 707 41 719T63 731H431Q445 731 452 724T460 706Q460 691 450 674L128 76H444Q459 76 466 64T474 38Q474 24 467 12T444 0H49Z" />
<glyph unicode="[" horiz-adv-x="313" d="M102 -21Q88 -21 76 -13T64 8V739Q64 752 76 760T102 768H266Q281 768 288 757T295 731Q295 716 288 705T266 693H148V54H266Q280 54 287 43T295 16Q295 2 288 -9T266 -21H102Z" />
<glyph unicode="\" horiz-adv-x="357" d="M300 0Q291 0 283 5T272 20L26 712Q24 717 24 723Q24 736 34 745T58 754Q67 754 74 750T84 737L332 39Q333 37 333 35T333 30Q333 18 324 9T300 0Z" />
<glyph unicode="]" horiz-adv-x="313" d="M47 -21Q32 -21 25 -10T18 16Q18 32 26 43T47 54H165V693H47Q34 693 26 704T18 731Q18 745 25 756T47 768H211Q226 768 237 760T249 739V8Q249 -5 237 -13T211 -21H47Z" />
<glyph unicode="^" horiz-adv-x="273" d="M23 588Q14 588 7 597T0 617Q0 625 4 632T15 643L119 699Q128 704 136 704Q145 704 153 699L257 644Q266 640 269 632T273 616Q273 605 267 597T250 588Q248 588 246 589T240 591L136 647L32 591Q30 590 28 589T23 588Z" />
<glyph unicode="_" horiz-adv-x="329" d="M5 -72Q-8 -72 -16 -62T-24 -36Q-24 -21 -16 -11T5 0H325Q336 0 345 -10T355 -36Q355 -52 346 -62T325 -72H5Z" />
<glyph unicode="`" horiz-adv-x="168" d="M138 584Q136 584 133 585T127 588L14 646Q0 654 0 670Q0 683 8 693T28 704Q33 704 38 702L155 640Q168 634 168 618Q168 606 160 595T138 584Z" />
<glyph unicode="a" horiz-adv-x="447" d="M163 -8Q107 -8 68 24T28 125Q28 180 58 210T140 252T262 264H310V285Q310 315 299 343T265 390T200 409Q165 409 145 402T112 388T91 380Q76 380 68 394T60 422Q60 438 82 451T137 472T202 480Q272 480 314 452T374 380T393
286V30Q393 18 382 9T352 0Q336 0 325 9T314 30V70Q288 40 251 16T163 -8ZM189 59Q218 59 245 75T291 115T310 161V213H275Q233 213 196 208T135 187T112 134Q112 95 134 77T189 59Z" />
<glyph unicode="b" horiz-adv-x="494" d="M276 -8Q230 -8 193 15T139 70V30Q139 19 128 10T100 0Q83 0 72 9T60 30V731Q60 744 71 752T100 760Q118 760 130 752T143 731V404Q159 433 192 456T274 480Q323 480 363 454T428 384T453 288V186Q453 136 429 92T364
20T276 -8ZM256 67Q287 67 313 84T354 129T370 186V288Q370 317 355 344T313 388T255 405Q228 405 202 391T160 351T143 288V159Q143 146 158 124T199 85T256 67Z" />
<glyph unicode="c" horiz-adv-x="418" d="M243 -8Q174 -8 130 18T64 87T42 186V286Q42 340 63 384T129 454T242 480Q286 480 319 469T370 442T388 411Q388 403 384 394T372 377T354 370Q344 370 333 379T302 396T247 405Q186 405 156 373T125 286V186Q125 131
155 99T248 67Q284 67 304 76T335 94T358 103Q369 103 377 97T389 81T394 63Q394 48 375 32T322 4T243 -8Z" />
<glyph unicode="d" horiz-adv-x="494" d="M218 -8Q171 -8 131 19T66 91T41 186V288Q41 341 65 384T130 453T220 480Q268 480 301 457T351 404V731Q351 744 363 752T394 760Q412 760 423 752T434 731V30Q434 19 423 10T394 0Q378 0 367 9T355 30V70Q340 39 302
16T218 -8ZM238 67Q270 67 295 84T336 124T351 159V288Q351 325 335 350T292 390T239 405Q207 405 181 388T140 344T124 288V186Q124 157 139 129T181 84T238 67Z" />
<glyph unicode="e" horiz-adv-x="465" d="M264 -8Q199 -8 149 16T70 84T41 186V291Q41 342 68 385T141 454T240 480Q292 480 335 456T405 391T432 296Q432 256 419 239T386 217T344 213H124V183Q124 127 164 95T267 62Q304 62 326 72T362 91T387 101Q398 101 405
95T417 79T421 63Q421 50 402 34T348 5T264 -8ZM124 269H309Q336 269 344 275T353 301Q353 331 339 356T298 398T239 414Q208 414 182 400T140 360T124 305V269Z" />
<glyph unicode="f" horiz-adv-x="315" d="M100 0Q83 0 72 8T60 29V573Q60 625 84 667T148 735T237 760H272Q288 760 297 749T306 723Q306 709 297 698T272 687H251Q220 687 196 673T157 634T143 580V474H280Q292 474 299 464T306 441Q306 429 299 419T280 409H143V29Q143
16 130 8T100 0Z" />
<glyph unicode="g" horiz-adv-x="459" d="M232 -229Q173 -229 126 -213T52 -166T24 -94Q24 -52 48 -26T105 15Q83 23 69 38T54 82Q54 110 68 126T104 156Q77 178 62 210T47 282V315Q47 364 69 401T131 459T226 480Q261 480 290 470T342 441Q358 474 375 490T410
506Q428 506 437 496T446 475Q446 467 441 461T429 452Q418 449 404 440T376 410Q391 391 398 367T406 315V282Q406 235 383 197T319 138T225 116Q184 116 152 131Q142 125 134 118T126 97Q126 76 148 67T206 54T280 45T354 28T411 -11T434 -83Q434 -132 407 -164T335
-213T232 -229ZM230 -171Q287 -171 320 -148T353 -85Q353 -57 336 -42T292 -19T236 -9T182 -3Q150 -13 127 -33T103 -85Q103 -124 138 -147T230 -171ZM227 173Q273 173 299 204T325 282V315Q325 361 299 392T226 423Q179 423 154 392T128 315V283Q128 236 154 205T227
173Z" />
<glyph unicode="h" horiz-adv-x="503" d="M101 0Q83 0 72 9T60 30V731Q60 744 71 752T101 760Q118 760 130 752T143 731V404Q159 433 191 456T273 480Q321 480 361 454T425 384T449 288V30Q449 15 436 8T407 0Q392 0 379 7T366 30V288Q366 317 350 344T309 388T252
405Q225 405 200 391T159 351T143 288V30Q143 19 131 10T101 0Z" />
<glyph unicode="i" horiz-adv-x="200" d="M100 0Q82 0 71 9T59 30V445Q59 458 70 466T100 474Q117 474 129 466T142 445V30Q142 19 130 10T100 0ZM100 604Q78 604 63 618T48 652Q48 671 63 685T100 699Q121 699 136 685T151 652Q151 633 136 619T100 604Z" />
<glyph unicode="j" horiz-adv-x="202" d="M6 -229Q-18 -229 -28 -218T-38 -193Q-38 -176 -28 -166T-4 -156Q25 -156 38 -141T55 -100T59 -40V445Q59 458 71 466T100 474Q118 474 130 466T142 445V-40Q142 -95 128 -138T84 -205T6 -229ZM100 604Q79 604 64 618T48
652Q48 671 63 685T100 699Q122 699 136 685T151 652Q151 633 137 619T100 604Z" />
<glyph unicode="k" horiz-adv-x="466" d="M100 0Q83 0 72 9T60 30V731Q60 744 71 752T100 760Q118 760 130 752T143 731V263L371 469Q380 476 389 476Q399 476 408 471T424 456T431 437Q431 432 429 427T422 417L283 294L449 53Q454 46 454 38Q454 28 447 18T430
2T408 -4Q394 -4 385 9L226 242L143 168V30Q143 19 131 10T100 0Z" />
<glyph unicode="l" horiz-adv-x="219" d="M109 0Q91 0 80 9T68 30V731Q68 744 79 752T109 760Q126 760 138 752T151 731V30Q151 19 139 10T109 0Z" />
<glyph unicode="m" horiz-adv-x="785" d="M100 0Q82 0 71 9T59 30V445Q59 458 70 466T100 474Q116 474 127 466T138 445V404Q155 433 188 456T271 480Q319 480 355 452T408 380Q434 431 475 455T559 480Q603 480 642 458T706 392T731 288V30Q731 19 719 10T689
0Q672 0 660 9T648 30V288Q648 326 633 352T593 391T543 405Q516 405 492 391T452 352T436 291V29Q436 14 423 7T394 0Q380 0 367 7T353 29V290Q353 324 339 350T301 390T249 405Q222 405 198 391T158 352T142 288V30Q142 19 130 10T100 0Z" />
<glyph unicode="n" horiz-adv-x="502" d="M100 0Q82 0 71 9T59 30V445Q59 458 70 466T100 474Q116 474 127 466T138 445V404Q154 433 188 456T272 480Q320 480 360 454T424 384T448 288V30Q448 15 435 8T406 0Q391 0 378 7T365 30V288Q365 317 350 344T308 388T251
405Q224 405 199 391T158 351T142 288V30Q142 19 130 10T100 0Z" />
<glyph unicode="o" horiz-adv-x="477" d="M238 -8Q185 -8 140 19T68 91T41 186V288Q41 339 67 382T139 453T238 480Q291 480 336 454T408 384T436 288V186Q436 136 409 92T336 20T238 -8ZM238 67Q270 67 295 84T337 128T353 186V288Q353 317 338 344T296 388T238
405Q206 405 180 388T139 344T124 288V186Q124 156 139 129T180 84T238 67Z" />
<glyph unicode="p" horiz-adv-x="494" d="M100 -229Q83 -229 72 -220T60 -199V445Q60 458 71 466T100 474Q117 474 128 466T139 445V404Q156 433 190 456T273 480Q323 480 364 454T429 384T453 288V186Q453 136 429 92T364 20T276 -8Q231 -8 195 15T143 70V-199Q143
-210 131 -219T100 -229ZM256 67Q286 67 312 84T354 129T370 186V288Q370 317 354 344T312 388T254 405Q227 405 202 391T160 351T143 288V159Q143 146 157 124T197 85T256 67Z" />
<glyph unicode="q" horiz-adv-x="494" d="M394 -229Q376 -229 364 -220T351 -199V70Q336 39 300 16T218 -8Q171 -8 131 19T66 91T41 186V288Q41 341 65 384T130 453T221 480Q270 480 304 457T355 404V445Q355 458 366 466T394 474Q412 474 423 466T434 445V-199Q434
-210 423 -219T394 -229ZM238 67Q271 67 296 84T336 124T351 159V288Q351 325 335 350T293 390T240 405Q208 405 182 388T140 344T124 288V186Q124 157 140 129T182 84T238 67Z" />
<glyph unicode="r" horiz-adv-x="342" d="M99 0Q82 0 71 9T59 30V445Q59 458 70 466T99 474Q116 474 127 466T138 445V398Q149 419 168 437T212 468T269 480H303Q316 480 325 469T335 442Q335 427 326 416T303 405H269Q237 405 208 387T161 337T142 258V30Q142
19 130 10T99 0Z" />
<glyph unicode="s" horiz-adv-x="395" d="M195 -8Q147 -8 110 4T52 34T31 68Q31 76 35 84T45 99T60 106Q72 106 86 95T124 71T193 59Q246 59 267 78T288 122Q288 153 270 169T224 195T165 214T106 236T61 274T43 340Q43 373 59 405T111 458T207 480Q242 480 274
473T327 453T348 426Q348 420 344 410T333 392T315 384Q307 384 293 391T258 406T208 413Q175 413 155 402T126 375T117 343Q117 318 134 304T180 282T240 265T299 241T345 198T363 126Q363 65 319 29T195 -8Z" />
<glyph unicode="t" horiz-adv-x="309" d="M223 0Q142 0 100 36T57 151V666Q57 679 70 687T98 695Q114 695 127 687T140 666V474H266Q278 474 284 464T291 441Q291 428 285 419T266 409H140V151Q140 108 158 91T223 73H254Q272 73 281 62T290 37Q290 23 281 12T254 0H223Z" />
<glyph unicode="u" horiz-adv-x="504" d="M253 -8Q198 -8 153 19T81 90T54 184V444Q54 455 66 464T96 474Q113 474 125 465T137 444V184Q137 155 152 128T194 84T252 67Q284 67 310 84T351 128T366 184V445Q366 457 379 465T408 474Q427 474 438 466T449 445V184Q449
133 423 90T351 19T253 -8Z" />
<glyph unicode="v" horiz-adv-x="436" d="M218 -9Q205 -9 195 -5T180 9L16 424Q15 426 14 431T12 440Q12 450 20 458T41 471T65 476Q73 476 81 472T92 460L218 120L344 456Q347 465 353 470T371 476Q381 476 393 472T415 459T425 440Q425 435 424 431T421 424L257
9Q253 1 242 -4T218 -9Z" />
<glyph unicode="w" horiz-adv-x="673" d="M206 -9Q194 -9 186 -5T172 12L17 424Q15 429 14 433T12 440Q12 451 20 459T41 471T64 476Q73 476 80 472T91 460L211 124L306 427Q310 438 318 442T337 447Q348 447 356 443T368 427L461 121L583 460Q588 476 609 476Q620
476 632 472T652 459T661 440Q661 437 660 432T657 424L501 9Q497 -1 488 -5T468 -9Q455 -9 447 -5T434 9L337 303L242 12Q238 2 228 -3T206 -9Z" />
<glyph unicode="x" horiz-adv-x="426" d="M74 -8Q65 -8 53 -2T32 14T23 33Q23 42 29 50L157 240L33 422Q31 425 29 429T27 438Q27 448 36 457T57 473T80 480Q85 480 91 478T102 468L213 296L325 468Q328 474 334 477T347 480Q357 480 369 474T390 458T399 438Q399
431 393 422L268 240L398 50Q400 47 401 43T403 33Q403 25 395 15T375 -1T351 -8Q345 -8 339 -5T329 4L213 181L98 4Q94 -2 87 -5T74 -8Z" />
<glyph unicode="y" d="M50 -229Q34 -229 23 -222T12 -192Q12 -178 17 -167T36 -156Q58 -156 80 -144T122 -107T158 -49T180 24L14 429Q11 435 11 440Q11 451 20 460T41 474T65 480Q73 480 81 476T91 463L224 115L343 463Q346 472 353 476T369 480Q379 480 391
475T413 460T422 439Q422 433 420 429L267 22Q252 -19 235 -63T195 -144T136 -205T50 -229Z" />
<glyph unicode="z" horiz-adv-x="410" d="M54 0Q39 0 31 9T23 31Q23 40 27 49T36 64L267 403H60Q49 403 41 413T32 438Q32 453 40 463T60 474H346Q358 474 367 466T376 442Q376 426 364 410L132 71H361Q373 71 381 61T389 35Q389 21 381 11T361 0H54Z" />
<glyph unicode="{" horiz-adv-x="323" d="M260 -20Q210 -20 167 -1T96 54T69 135Q69 145 70 165T75 211T81 261T85 304T87 329Q87 342 78 346T57 352T36 360T27 385Q27 403 36 409T57 418T78 424T87 441Q87 448 85 469T78 517T72 566T69 601Q69 634 84 664T127
717T189 754T261 768Q286 768 296 756T306 731Q306 718 299 707T277 695Q247 695 218 682T171 645T153 591Q153 580 155 558T162 509T168 462T171 433Q171 414 158 400T136 384Q146 381 158 368T171 336Q171 327 169 301T162 242T156 181T153 142Q153 116 166 99T199
71T241 57T277 53Q289 53 295 47T303 33T306 17Q306 -1 294 -10T260 -20Z" />
<glyph unicode="|" horiz-adv-x="212" d="M106 -21Q88 -21 76 -12T64 8V739Q64 752 76 760T106 768Q123 768 135 760T148 739V8Q148 -3 136 -12T106 -21Z" />
<glyph unicode="}" horiz-adv-x="323" d="M63 -20Q42 -20 30 -11T17 17Q17 25 19 33T28 47T46 53Q61 53 82 57T123 71T157 98T170 142Q170 153 168 181T161 241T155 300T152 336Q152 355 164 368T187 384Q177 386 165 400T152 433Q152 441 154 462T161 509T167
557T170 591Q170 622 152 645T105 681T46 695Q32 695 25 706T17 731Q17 744 27 756T62 768Q99 768 134 755T196 718T238 664T254 601Q254 590 252 567T245 517T239 470T236 441Q236 428 245 424T266 418T287 410T296 385Q296 367 287 361T266 352T245 346T236 329Q236
322 237 304T242 262T248 212T252 166T254 135Q254 89 227 54T157 0T63 -20Z" />
<glyph unicode="~" horiz-adv-x="404" d="M278 211Q249 211 229 219T188 236T142 244Q121 244 107 237T84 222T66 214Q58 214 53 219T46 232T43 244Q43 261 52 272T76 290T105 301T130 304Q158 304 178 296T218 280T265 271Q287 271 299 278T320 292T338 299Q347
299 352 294T359 282T362 270Q362 252 353 241T330 223T302 214T278 211Z" />
<glyph unicode="&#xa0;" horiz-adv-x="200" />
<glyph unicode="&#xa1;" horiz-adv-x="207" d="M103 -6Q85 -6 72 5T59 37Q59 115 62 200T68 370T71 533Q71 547 82 553T103 560Q116 560 126 554T136 533Q136 455 139 370T146 200T149 37Q149 16 136 5T103 -6ZM103 636Q81 636 66 651T51 689Q51 710 66 725T103
741Q125 741 140 726T155 689Q155 667 140 652T103 636Z" />
<glyph unicode="&#xa2;" horiz-adv-x="423" d="M225 40Q213 40 205 48T197 67V167Q113 177 74 230T34 358V378Q34 427 51 467T104 535T197 569V668Q197 680 205 687T225 694Q236 694 244 687T253 668V570Q289 568 319 558T366 534T383 504Q383 495 379 486T366
470T348 464Q339 464 329 472T302 488T253 498V239Q284 241 301 249T329 265T348 273Q365 273 375 261T386 234Q386 218 367 203T318 179T253 166V67Q253 56 245 48T225 40ZM197 240V496Q152 486 131 456T109 378V358Q109 311 130 281T197 240Z" />
<glyph unicode="&#xa3;" horiz-adv-x="503" d="M52 0Q38 0 31 12T23 38Q23 53 30 64T52 76H110L150 367H80Q68 367 61 376T54 399Q54 412 61 422T80 432H159L180 572Q188 627 221 671T304 742T409 768H433Q449 768 457 757T465 730Q465 717 457 705T433 693H404Q366
693 336 676T287 632T263 572L242 432H383Q395 432 401 422T408 399Q408 387 402 377T383 367H233L192 76H437Q451 76 458 65T465 38Q465 24 458 12T437 0H52Z" />
<glyph unicode="&#xa4;" horiz-adv-x="469" d="M236 290Q204 290 175 301T122 334L93 306Q88 301 80 301Q71 301 65 308T58 324Q58 331 63 336L94 366Q77 389 68 416T59 472Q59 501 68 528T93 577L67 603Q62 609 62 616Q62 625 69 632T85 639Q92 639 98 634L122
609Q145 629 174 640T236 652Q266 652 294 642T345 612L372 638Q377 643 385 643Q394 643 401 636T408 620Q408 613 402 607L375 581Q393 559 403 531T414 472Q414 442 403 414T374 363L402 336Q408 329 408 324Q408 316 401 309T385 301Q377 301 372 306L345 332Q322
313 294 302T236 290ZM236 345Q270 345 298 363T342 410T359 472Q359 504 343 532T298 579T236 597Q201 597 174 579T130 533T113 472Q113 439 129 410T174 363T236 345Z" />
<glyph unicode="&#xa5;" horiz-adv-x="522" d="M259 0Q243 0 230 8T217 29V175H110Q98 175 90 184T81 206Q81 220 89 229T110 239H217V310H110Q98 310 90 319T81 341Q81 355 89 364T110 374H198L27 687Q26 689 25 692T24 698Q24 707 31 715T50 728T73 734Q82 734
88 728T100 713L259 405L424 713Q429 722 435 728T451 734Q462 734 473 729T491 715T499 698Q499 691 496 687L320 374H412Q424 374 433 365T442 341Q442 328 433 319T412 310H301V239H412Q424 239 433 230T442 207Q442 193 433 184T412 175H301V29Q301 16 289
8T259 0Z" />
<glyph unicode="&#xa6;" horiz-adv-x="214" d="M107 444Q89 444 77 453T65 473V739Q65 752 77 760T107 768Q124 768 136 760T149 739V473Q149 462 137 453T107 444ZM107 -21Q89 -21 77 -12T65 8V274Q65 287 77 295T107 303Q124 303 136 295T149 274V8Q149 -3 137
-12T107 -21Z" />
<glyph unicode="&#xa7;" horiz-adv-x="471" d="M233 -67Q174 -67 132 -44T68 18T46 99Q46 120 56 127T84 135Q104 135 112 127T120 108Q120 94 124 77T140 43T171 16T226 5Q282 5 310 33T338 112Q338 145 323 165T283 198T228 222T168 246T113 280T73 333T57 416V535Q57
595 74 633T118 692T176 722T237 731Q292 731 329 709T385 650T403 569Q403 546 394 539T369 532Q350 532 341 540T332 566Q332 583 325 605T297 643T240 660Q213 660 189 649T151 613T136 549Q136 516 151 496T192 462T248 438T309 414T365 381T406 328T422 245V127Q422
73 407 36T364 -24T302 -57T233 -67ZM351 225V252Q351 292 335 315T292 352T236 376T177 398T130 430V404Q130 364 146 341T189 304T245 280T303 258T351 225Z" />
<glyph unicode="&#xa8;" horiz-adv-x="211" d="M171 588Q154 588 143 600T131 630Q131 647 142 659T171 671Q188 671 199 659T211 630Q211 613 200 601T171 588ZM41 588Q24 588 12 600T0 630Q0 647 12 659T41 671Q58 671 69 659T81 630Q81 613 70 601T41 588Z" />
<glyph unicode="&#xa9;" horiz-adv-x="709" d="M351 35Q298 35 245 55T146 115T74 216T47 358Q47 442 75 503T150 605T250 665T357 685Q410 685 463 665T562 605T634 504T661 362Q661 278 633 217T558 115T458 55T351 35ZM351 84Q428 84 487 119T579 217T612 362Q612
442 581 504T492 601T357 636Q282 636 223 601T130 504T96 358Q96 279 128 217T217 119T351 84ZM355 169Q310 169 279 196T247 291V443Q247 509 279 537T355 565Q406 565 436 538T466 466Q466 449 460 443T439 437Q428 437 421 442T412 456Q412 466 409 480T394
504T357 515Q301 515 301 443V291Q301 218 358 218Q382 218 393 229T407 254T412 281Q413 291 420 295T439 300Q453 300 459 294T466 270Q466 226 436 198T355 169Z" />
<glyph unicode="&#xaa;" horiz-adv-x="319" d="M134 434Q127 433 120 433T106 433Q75 436 54 456T32 517Q32 570 74 589T182 608H212V620Q212 647 197 670T145 694Q122 694 109 689T89 680T74 675Q64 675 58 685T52 706Q52 717 66 726T103 740T146 746Q193 746
221 728T261 682T273 620V458Q273 449 265 443T243 436Q231 436 223 442T215 458V481Q200 465 180 451T134 434ZM139 479Q156 479 173 489T201 514T212 544V572H186Q162 572 141 569T107 555T94 524Q94 500 107 490T139 479Z" />
<glyph unicode="&#xab;" horiz-adv-x="431" d="M344 74Q326 74 319 87L234 243Q228 255 224 262T220 277Q220 285 224 292T234 311L319 468Q326 481 346 481Q359 481 370 474T387 458T394 439Q394 434 391 428L310 277L391 126Q394 122 394 115Q394 106 388 97T370
81T344 74ZM157 74Q138 74 131 87L47 243Q41 255 37 262T32 277Q32 285 36 292T47 311L131 468Q138 481 158 481Q171 481 182 474T200 458T207 439Q207 434 204 428L123 277L204 126Q207 122 207 115Q207 106 200 97T182 81T157 74Z" />
<glyph unicode="&#xac;" horiz-adv-x="489" d="M387 63Q369 63 357 72T345 92V205H76Q63 205 55 215T47 240Q47 256 55 266T76 276H398Q410 276 419 266T428 240V92Q428 81 417 72T387 63Z" />
<glyph unicode="&#xad;" horiz-adv-x="463" d="M71 205Q59 205 51 215T42 240Q42 256 50 266T71 276H391Q403 276 412 266T421 240Q421 225 412 215T391 205H71Z" />
<glyph unicode="&#xae;" horiz-adv-x="709" d="M351 35Q298 35 245 55T146 115T74 216T47 358Q47 442 75 503T150 605T250 665T357 685Q410 685 463 665T562 605T634 504T661 362Q661 278 633 217T558 115T458 55T351 35ZM351 84Q428 84 487 119T579 217T612 362Q612
442 581 504T492 601T357 636Q282 636 223 601T130 504T96 358Q96 279 128 217T217 119T351 84ZM445 173Q438 173 434 178T425 191L356 339H308V193Q308 184 301 179T283 174Q273 174 265 179T256 193V539Q256 546 261 551T274 557H365Q395 557 419 547T459 514T474
450Q474 404 455 380T407 347L472 208Q474 204 474 201Q474 190 465 182T445 173ZM308 383H365Q391 383 407 398T423 445Q423 481 407 495T365 510H308V383Z" />
<glyph unicode="&#xaf;" horiz-adv-x="271" d="M29 628Q16 628 8 636T0 658Q0 671 8 680T29 689H241Q252 689 261 680T271 658Q271 645 262 637T241 628H29Z" />
<glyph unicode="&#xb0;" horiz-adv-x="413" d="M206 406Q159 406 119 431T54 498T29 588Q29 636 53 677T117 743T206 768Q254 768 294 744T359 679T384 588Q384 541 360 499T295 432T206 406ZM206 461Q240 461 268 479T312 526T329 588Q329 620 313 648T269 695T206
713Q172 713 144 695T100 649T84 588Q84 555 100 526T144 479T206 461Z" />
<glyph unicode="&#xb1;" horiz-adv-x="475" d="M238 172Q223 172 213 180T202 201V322H77Q65 322 57 332T48 357Q48 373 56 383T77 393H202V513Q202 524 212 533T238 543Q255 543 264 534T274 513V393H397Q409 393 418 383T427 357Q427 342 418 332T397 322H274V201Q274
188 265 180T238 172ZM77 50Q65 50 57 60T48 85Q48 101 56 111T77 121H397Q409 121 418 111T427 85Q427 70 418 60T397 50H77Z" />
<glyph unicode="&#xb2;" horiz-adv-x="310" d="M57 348Q49 348 40 353T30 368V418Q30 444 49 464T96 504T152 542T200 581T219 624Q219 642 204 659T155 676Q131 676 115 664T98 626Q98 618 89 611T66 604Q54 604 46 611T38 636Q38 666 54 686T97 719T156 731Q189
731 217 718T262 682T279 626Q279 592 260 567T214 522T158 486T111 454T92 421V401H262Q269 401 275 393T281 375Q281 365 275 357T262 348H57Z" />
<glyph unicode="&#xb3;" horiz-adv-x="318" d="M153 345Q109 345 81 359T40 395T26 438Q26 453 33 457T55 462Q74 462 80 457T86 441Q86 430 93 420T116 404T154 398Q190 398 207 412T225 460V469Q225 501 206 512T154 524Q143 524 139 531T134 547Q134 557 138
564T154 572Q180 572 197 582T214 627Q214 655 199 666T156 678Q132 678 120 673T101 658T95 638Q95 628 89 622T67 615Q47 615 42 620T36 641Q36 659 46 680T83 716T156 731Q207 731 239 710T272 637Q272 606 260 583T226 550Q252 541 268 522T284 469V460Q284
418 267 393T220 356T153 345Z" />
<glyph unicode="&#xb4;" horiz-adv-x="168" d="M30 584Q18 584 9 595T0 618Q0 634 13 640L130 702Q136 704 140 704Q153 704 160 694T168 670Q168 654 154 646L41 588Q38 587 36 586T30 584Z" />
<glyph unicode="&#xb5;" horiz-adv-x="498" d="M107 -229Q90 -229 79 -220T67 -200V444Q67 455 79 464T108 474Q125 474 137 465T150 444V170Q150 155 159 137T184 104T221 78T265 67Q295 67 320 84T360 128T375 184V444Q375 457 387 465T416 474Q434 474 446
466T458 444V184Q458 133 432 89T362 19T264 -8Q224 -8 192 9T142 50V-200Q142 -211 132 -220T107 -229Z" />
<glyph unicode="&#xb6;" horiz-adv-x="536" d="M294 0Q282 0 273 7T264 30V306H228Q173 306 129 326T58 392T32 513V525Q32 600 58 645T128 710T228 731H433Q444 731 453 724T463 701V29Q463 14 454 7T433 0Q421 0 412 7T403 29V683H324V30Q324 15 315 8T294 0Z" />
<glyph unicode="&#xb7;" horiz-adv-x="191" d="M96 250Q73 250 58 265T42 300Q42 321 57 335T96 350Q118 350 134 336T150 300Q150 280 134 265T96 250Z" />
<glyph unicode="&#xb8;" horiz-adv-x="173" d="M80 -212Q65 -212 47 -209T14 -200T0 -185Q0 -182 2 -175T8 -163T18 -157Q24 -157 37 -164T74 -171Q102 -171 114 -161T126 -134Q126 -115 111 -105T67 -93L24 -90L50 9H95L77 -58Q128 -59 150 -81T173 -131Q173
-149 164 -167T134 -199T80 -212Z" />
<glyph unicode="&#xb9;" horiz-adv-x="175" d="M98 348Q86 348 77 352T68 368V654L47 634Q41 629 35 629Q26 629 20 636T14 653Q14 660 17 666T26 675L86 726Q92 732 101 732Q111 732 119 727T128 712V368Q128 357 119 353T98 348Z" />
<glyph unicode="&#xba;" horiz-adv-x="332" d="M166 431Q131 431 101 449T53 496T35 558V620Q35 654 52 682T100 728T166 746Q201 746 230 729T278 684T296 620V558Q296 525 278 496T231 449T166 431ZM166 486Q194 486 214 508T235 558V620Q235 647 215 668T166
690Q136 690 117 669T97 620V558Q97 531 116 509T166 486Z" />
<glyph unicode="&#xbb;" horiz-adv-x="431" d="M275 74Q262 74 250 80T232 96T225 115Q225 122 228 126L309 277L228 428Q225 434 225 439Q225 449 231 458T249 474T273 481Q294 481 300 468L385 311Q391 300 395 293T399 277Q399 269 395 262T385 243L300 87Q294
74 275 74ZM87 74Q74 74 63 80T44 96T37 115Q37 122 40 126L121 277L40 428Q37 434 37 439Q37 449 43 458T61 474T86 481Q107 481 113 468L197 311Q203 300 207 293T211 277Q211 269 207 262T197 243L113 87Q106 74 87 74Z" />
<glyph unicode="&#xbc;" horiz-adv-x="628" d="M98 348Q86 348 77 352T68 368V654L47 634Q41 629 35 629Q26 629 20 636T14 653Q14 660 17 666T26 675L86 726Q92 732 101 732Q111 732 119 727T128 712V368Q128 357 119 353T98 348ZM69 -30Q56 -30 47 -21T37 0Q37
7 40 13L415 755Q423 770 440 770Q452 770 463 761T474 737Q474 730 471 723L97 -14Q94 -22 86 -26T69 -30ZM535 0Q524 0 515 5T505 20V85H363Q355 85 349 91T342 107Q342 112 346 119L485 367Q490 375 497 379T511 383Q520 383 531 377T542 360Q542 356 539 351L420
141H505V207Q505 217 514 221T535 226Q547 226 556 222T566 207V141H594Q604 141 609 133T615 113Q615 103 609 94T594 85H566V20Q566 10 557 5T535 0Z" />
<glyph unicode="&#xbd;" horiz-adv-x="642" d="M98 348Q86 348 77 352T68 368V654L47 634Q41 629 35 629Q26 629 20 636T14 653Q14 660 17 666T26 675L86 726Q92 732 101 732Q111 732 119 727T128 712V368Q128 357 119 353T98 348ZM69 -30Q56 -30 47 -21T37 0Q37
7 40 13L415 755Q423 770 440 770Q452 770 463 761T474 737Q474 730 471 723L97 -14Q94 -22 86 -26T69 -30ZM389 0Q381 0 372 5T362 20V71Q362 96 381 117T428 157T484 194T532 233T551 276Q551 294 536 311T487 328Q463 328 447 316T430 278Q430 271 421 264T398
256Q386 256 378 263T370 288Q370 318 386 339T429 371T488 383Q521 383 549 370T594 334T611 278Q611 245 592 220T546 174T490 138T443 106T424 73V53H594Q601 53 607 46T613 27Q613 17 607 9T594 0H389Z" />
<glyph unicode="&#xbe;" horiz-adv-x="770" d="M153 345Q109 345 81 359T40 395T26 438Q26 453 33 457T55 462Q74 462 80 457T86 441Q86 430 93 420T116 404T154 398Q190 398 207 412T225 460V469Q225 501 206 512T154 524Q143 524 139 531T134 547Q134 557 138
564T154 572Q180 572 197 582T214 627Q214 655 199 666T156 678Q132 678 120 673T101 658T95 638Q95 628 89 622T67 615Q47 615 42 620T36 641Q36 659 46 680T83 716T156 731Q207 731 239 710T272 637Q272 606 260 583T226 550Q252 541 268 522T284 469V460Q284
418 267 393T220 356T153 345ZM212 -30Q199 -30 190 -21T180 0Q180 7 183 13L558 755Q566 770 583 770Q595 770 606 761T617 737Q617 730 614 723L240 -14Q237 -22 229 -26T212 -30ZM678 0Q667 0 658 5T648 20V85H506Q498 85 492 91T485 107Q485 112 489 119L628
367Q633 375 640 379T654 383Q663 383 674 377T685 360Q685 356 682 351L563 141H648V207Q648 217 657 221T678 226Q690 226 699 222T709 207V141H737Q747 141 752 133T758 113Q758 103 752 94T737 85H709V20Q709 10 700 5T678 0Z" />
<glyph unicode="&#xbf;" horiz-adv-x="411" d="M225 -6Q163 -6 120 17T54 80T32 169Q32 214 47 248T83 308T126 353T161 387Q180 406 188 426T198 473T200 534Q200 545 207 552T233 560Q249 560 257 552T266 523Q266 470 259 438T242 386T218 354Q203 338 184
322T146 285T115 238T103 177Q103 122 136 92T229 61Q263 61 283 69T314 88T335 107T355 115Q366 115 377 107T388 82Q388 64 368 44T311 9T225 -6ZM233 636Q212 636 197 651T181 689Q181 710 196 725T233 741Q255 741 270 726T285 689Q285 667 270 652T233 636Z"
/>
<glyph unicode="&#xc0;" horiz-adv-x="548" d="M67 0Q57 0 45 4T25 17T17 35Q17 39 18 43L223 708Q227 723 242 730T274 737Q292 737 307 730T326 708L530 43Q532 39 532 36Q532 26 524 18T503 5T480 0Q469 0 461 4T450 19L405 168H142L99 19Q96 9 88 5T67 0ZM162
237H386L274 613L162 237ZM318 835Q316 835 313 836T307 839L194 897Q180 905 180 921Q180 934 188 944T208 955Q213 955 218 953L335 891Q348 885 348 869Q348 857 340 846T318 835Z" />
<glyph unicode="&#xc1;" horiz-adv-x="548" d="M67 0Q57 0 45 4T25 17T17 35Q17 39 18 43L223 708Q227 723 242 730T274 737Q292 737 307 730T326 708L530 43Q532 39 532 36Q532 26 524 18T503 5T480 0Q469 0 461 4T450 19L405 168H142L99 19Q96 9 88 5T67 0ZM162
237H386L274 613L162 237ZM234 835Q222 835 213 846T204 869Q204 885 217 891L334 953Q340 955 344 955Q357 955 364 945T372 921Q372 905 358 897L245 839Q242 838 240 837T234 835Z" />
<glyph unicode="&#xc2;" horiz-adv-x="548" d="M67 0Q57 0 45 4T25 17T17 35Q17 39 18 43L223 708Q227 723 242 730T274 737Q292 737 307 730T326 708L530 43Q532 39 532 36Q532 26 524 18T503 5T480 0Q469 0 461 4T450 19L405 168H142L99 19Q96 9 88 5T67 0ZM162
237H386L274 613L162 237ZM161 839Q152 839 145 848T138 868Q138 876 142 883T153 894L257 950Q266 955 274 955Q283 955 291 950L395 895Q404 891 407 883T411 867Q411 856 405 848T388 839Q386 839 384 840T378 842L274 898L170 842Q168 841 166 840T161 839Z"
/>
<glyph unicode="&#xc3;" horiz-adv-x="548" d="M67 0Q57 0 45 4T25 17T17 35Q17 39 18 43L223 708Q227 723 242 730T274 737Q292 737 307 730T326 708L530 43Q532 39 532 36Q532 26 524 18T503 5T480 0Q469 0 461 4T450 19L405 168H142L99 19Q96 9 88 5T67 0ZM162
237H386L274 613L162 237ZM350 854Q321 854 301 862T260 879T214 887Q193 887 179 880T156 866T138 858Q130 858 125 863T118 875T115 887Q115 904 124 915T148 934T177 944T202 948Q230 948 250 940T290 924T337 915Q359 915 371 922T392 935T410 942Q419 942
424 937T431 926T434 914Q434 896 425 885T402 866T374 857T350 854Z" />
<glyph unicode="&#xc4;" horiz-adv-x="548" d="M67 0Q57 0 45 4T25 17T17 35Q17 39 18 43L223 708Q227 723 242 730T274 737Q292 737 307 730T326 708L530 43Q532 39 532 36Q532 26 524 18T503 5T480 0Q469 0 461 4T450 19L405 168H142L99 19Q96 9 88 5T67 0ZM162
237H386L274 613L162 237ZM339 839Q322 839 311 851T299 881Q299 898 310 910T339 922Q356 922 367 910T379 881Q379 864 368 852T339 839ZM209 839Q192 839 180 851T168 881Q168 898 180 910T209 922Q226 922 237 910T249 881Q249 864 238 852T209 839Z" />
<glyph unicode="&#xc5;" horiz-adv-x="548" d="M67 0Q57 0 45 4T25 17T17 35Q17 39 18 43L223 708Q227 723 242 730T274 737Q292 737 307 730T326 708L530 43Q532 39 532 36Q532 26 524 18T503 5T480 0Q469 0 461 4T450 19L405 168H142L99 19Q96 9 88 5T67 0ZM162
237H386L274 613L162 237ZM275 825Q249 825 228 838T194 874T181 922Q181 947 193 968T227 1003T275 1017Q300 1017 321 1004T356 969T369 922Q369 897 356 875T322 839T275 825ZM275 863Q297 863 313 881T330 922Q330 942 314 959T275 977Q251 977 235 959T219
922Q219 900 235 882T275 863Z" />
<glyph unicode="&#xc6;" horiz-adv-x="735" d="M106 0Q85 0 77 10T68 35V513Q68 593 96 640T172 709T280 731H683Q699 731 705 719T712 694Q712 679 705 667T683 655H451V401H590Q604 401 611 390T619 365Q619 353 612 342T590 331H451V76H683Q697 76 704 65T712
37Q712 24 706 12T683 0H405Q391 0 379 7T367 30V331H148V35Q148 20 141 10T106 0ZM148 401H367V655H280Q218 655 183 621T148 513V401Z" />
<glyph unicode="&#xc7;" horiz-adv-x="532" d="M278 -6Q220 -6 171 15T93 85T64 212V513Q64 592 93 640T172 709T279 731Q347 731 395 708T469 646T495 557Q495 529 485 520T453 511Q433 511 423 519T411 540Q410 555 406 574T388 612T349 643T281 655Q217 655
183 621T148 513V212Q148 139 183 105T284 70Q326 70 350 82T387 112T404 150T411 189Q412 204 423 211T453 218Q474 218 484 209T495 171Q495 122 469 82T394 18T278 -6ZM299 -212Q284 -212 266 -209T233 -200T219 -185Q219 -182 221 -175T227 -163T237 -157Q243
-157 256 -164T293 -171Q321 -171 333 -161T345 -134Q345 -115 330 -105T286 -93L243 -90L269 9H314L296 -58Q347 -59 369 -81T392 -131Q392 -149 383 -167T353 -199T299 -212Z" />
<glyph unicode="&#xc8;" horiz-adv-x="514" d="M109 0Q95 0 83 7T71 30V701Q71 716 83 723T109 731H465Q481 731 487 719T494 694Q494 679 487 667T465 655H155V401H311Q325 401 332 390T340 365Q340 353 334 342T311 331H155V76H465Q479 76 486 65T494 37Q494
24 488 12T465 0H109ZM324 835Q322 835 319 836T313 839L200 897Q186 905 186 921Q186 934 194 944T214 955Q219 955 224 953L341 891Q354 885 354 869Q354 857 346 846T324 835Z" />
<glyph unicode="&#xc9;" horiz-adv-x="514" d="M109 0Q95 0 83 7T71 30V701Q71 716 83 723T109 731H465Q481 731 487 719T494 694Q494 679 487 667T465 655H155V401H311Q325 401 332 390T340 365Q340 353 334 342T311 331H155V76H465Q479 76 486 65T494 37Q494
24 488 12T465 0H109ZM240 835Q228 835 219 846T210 869Q210 885 223 891L340 953Q346 955 350 955Q363 955 370 945T378 921Q378 905 364 897L251 839Q248 838 246 837T240 835Z" />
<glyph unicode="&#xca;" horiz-adv-x="514" d="M109 0Q95 0 83 7T71 30V701Q71 716 83 723T109 731H465Q481 731 487 719T494 694Q494 679 487 667T465 655H155V401H311Q325 401 332 390T340 365Q340 353 334 342T311 331H155V76H465Q479 76 486 65T494 37Q494
24 488 12T465 0H109ZM167 839Q158 839 151 848T144 868Q144 876 148 883T159 894L263 950Q272 955 280 955Q289 955 297 950L401 895Q410 891 413 883T417 867Q417 856 411 848T394 839Q392 839 390 840T384 842L280 898L176 842Q174 841 172 840T167 839Z" />
<glyph unicode="&#xcb;" horiz-adv-x="514" d="M109 0Q95 0 83 7T71 30V701Q71 716 83 723T109 731H465Q481 731 487 719T494 694Q494 679 487 667T465 655H155V401H311Q325 401 332 390T340 365Q340 353 334 342T311 331H155V76H465Q479 76 486 65T494 37Q494
24 488 12T465 0H109ZM346 839Q329 839 318 851T306 881Q306 898 317 910T346 922Q363 922 374 910T386 881Q386 864 375 852T346 839ZM216 839Q199 839 187 851T175 881Q175 898 187 910T216 922Q233 922 244 910T256 881Q256 864 245 852T216 839Z" />
<glyph unicode="&#xcc;" horiz-adv-x="227" d="M113 0Q98 0 85 7T71 30V702Q71 717 84 724T113 731Q129 731 142 724T155 702V30Q155 15 142 8T113 0ZM156 835Q154 835 151 836T145 839L32 897Q18 905 18 921Q18 934 26 944T46 955Q51 955 56 953L173 891Q186
885 186 869Q186 857 178 846T156 835Z" />
<glyph unicode="&#xcd;" horiz-adv-x="227" d="M113 0Q98 0 85 7T71 30V702Q71 717 84 724T113 731Q129 731 142 724T155 702V30Q155 15 142 8T113 0ZM73 835Q61 835 52 846T43 869Q43 885 56 891L173 953Q179 955 183 955Q196 955 203 945T211 921Q211 905 197
897L84 839Q81 838 79 837T73 835Z" />
<glyph unicode="&#xce;" horiz-adv-x="227" d="M113 0Q98 0 85 7T71 30V702Q71 717 84 724T113 731Q129 731 142 724T155 702V30Q155 15 142 8T113 0ZM0 839Q-9 839 -16 848T-23 868Q-23 876 -19 883T-8 894L96 950Q105 955 113 955Q122 955 130 950L234 895Q243
891 246 883T250 867Q250 856 244 848T227 839Q225 839 223 840T217 842L113 898L9 842Q7 841 5 840T0 839Z" />
<glyph unicode="&#xcf;" horiz-adv-x="227" d="M113 0Q98 0 85 7T71 30V702Q71 717 84 724T113 731Q129 731 142 724T155 702V30Q155 15 142 8T113 0ZM178 839Q161 839 150 851T138 881Q138 898 149 910T178 922Q195 922 206 910T218 881Q218 864 207 852T178
839ZM48 839Q31 839 19 851T7 881Q7 898 19 910T48 922Q65 922 76 910T88 881Q88 864 77 852T48 839Z" />
<glyph unicode="&#xd0;" horiz-adv-x="574" d="M118 0Q101 0 91 8T80 29V351H23Q11 351 5 361T-2 383Q-2 396 4 406T23 416H80V702Q80 714 90 722T118 731H295Q355 731 404 710T482 641T511 513V218Q511 138 483 91T405 22T295 0H118ZM164 76H295Q357 76 392 110T427
218V513Q427 586 392 620T295 655H164V416H267Q279 416 286 406T293 383Q293 370 286 361T267 351H164V76Z" />
<glyph unicode="&#xd1;" horiz-adv-x="582" d="M113 0Q98 0 85 7T71 30V702Q71 718 84 724T113 731Q129 731 140 725T160 708T178 678L426 191V702Q426 717 439 724T468 731Q484 731 497 724T510 702V30Q510 15 497 8T468 0Q452 0 439 11T416 38L155 541V30Q155
15 142 8T113 0ZM366 854Q337 854 317 862T276 879T230 887Q209 887 195 880T172 866T154 858Q146 858 141 863T134 875T131 887Q131 904 140 915T164 934T193 944T218 948Q246 948 266 940T306 924T353 915Q375 915 387 922T408 935T426 942Q435 942 440 937T447
926T450 914Q450 896 441 885T418 866T390 857T366 854Z" />
<glyph unicode="&#xd2;" horiz-adv-x="559" d="M279 -6Q218 -6 170 15T93 84T64 212V513Q64 593 92 640T169 709T279 731Q340 731 389 710T466 641T495 513V212Q495 132 467 85T389 16T279 -6ZM279 70Q341 70 376 104T411 212V513Q411 586 376 620T279 655Q217
655 183 621T148 513V212Q148 139 182 105T279 70ZM323 835Q321 835 318 836T312 839L199 897Q185 905 185 921Q185 934 193 944T213 955Q218 955 223 953L340 891Q353 885 353 869Q353 857 345 846T323 835Z" />
<glyph unicode="&#xd3;" horiz-adv-x="559" d="M279 -6Q218 -6 170 15T93 84T64 212V513Q64 593 92 640T169 709T279 731Q340 731 389 710T466 641T495 513V212Q495 132 467 85T389 16T279 -6ZM279 70Q341 70 376 104T411 212V513Q411 586 376 620T279 655Q217
655 183 621T148 513V212Q148 139 182 105T279 70ZM239 835Q227 835 218 846T209 869Q209 885 222 891L339 953Q345 955 349 955Q362 955 369 945T377 921Q377 905 363 897L250 839Q247 838 245 837T239 835Z" />
<glyph unicode="&#xd4;" horiz-adv-x="559" d="M279 -6Q218 -6 170 15T93 84T64 212V513Q64 593 92 640T169 709T279 731Q340 731 389 710T466 641T495 513V212Q495 132 467 85T389 16T279 -6ZM279 70Q341 70 376 104T411 212V513Q411 586 376 620T279 655Q217
655 183 621T148 513V212Q148 139 182 105T279 70ZM167 839Q158 839 151 848T144 868Q144 876 148 883T159 894L263 950Q272 955 280 955Q289 955 297 950L401 895Q410 891 413 883T417 867Q417 856 411 848T394 839Q392 839 390 840T384 842L280 898L176 842Q174
841 172 840T167 839Z" />
<glyph unicode="&#xd5;" horiz-adv-x="559" d="M279 -6Q218 -6 170 15T93 84T64 212V513Q64 593 92 640T169 709T279 731Q340 731 389 710T466 641T495 513V212Q495 132 467 85T389 16T279 -6ZM279 70Q341 70 376 104T411 212V513Q411 586 376 620T279 655Q217
655 183 621T148 513V212Q148 139 182 105T279 70ZM355 854Q326 854 306 862T265 879T219 887Q198 887 184 880T161 866T143 858Q135 858 130 863T123 875T120 887Q120 904 129 915T153 934T182 944T207 948Q235 948 255 940T295 924T342 915Q364 915 376 922T397
935T415 942Q424 942 429 937T436 926T439 914Q439 896 430 885T407 866T379 857T355 854Z" />
<glyph unicode="&#xd6;" horiz-adv-x="559" d="M279 -6Q218 -6 170 15T93 84T64 212V513Q64 593 92 640T169 709T279 731Q340 731 389 710T466 641T495 513V212Q495 132 467 85T389 16T279 -6ZM279 70Q341 70 376 104T411 212V513Q411 586 376 620T279 655Q217
655 183 621T148 513V212Q148 139 182 105T279 70ZM345 839Q328 839 317 851T305 881Q305 898 316 910T345 922Q362 922 373 910T385 881Q385 864 374 852T345 839ZM215 839Q198 839 186 851T174 881Q174 898 186 910T215 922Q232 922 243 910T255 881Q255 864
244 852T215 839Z" />
<glyph unicode="&#xd7;" horiz-adv-x="400" d="M92 129Q83 129 74 134T59 149T53 168Q53 179 61 187L153 275L61 362Q54 370 54 382Q54 397 66 409T93 421Q104 421 112 413L199 326L287 413Q294 421 306 421Q321 421 333 409T345 382Q345 370 338 362L246 275L338
187Q346 179 346 168Q346 158 341 149T326 135T307 129Q296 129 288 136L199 225L111 136Q104 129 92 129Z" />
<glyph unicode="&#xd8;" horiz-adv-x="559" d="M279 -6Q218 -6 170 15T93 84T64 212V513Q64 593 92 640T169 709T279 731Q340 731 389 710T466 641T495 513V212Q495 132 467 85T389 16T279 -6ZM279 70Q341 70 376 104T411 212V513Q411 586 376 620T279 655Q217
655 183 621T148 513V212Q148 139 182 105T279 70ZM97 224Q83 224 74 233T65 254Q65 261 68 267L443 1009Q450 1024 468 1024Q480 1024 491 1015T502 991Q502 984 499 977L125 240Q121 232 114 228T97 224Z" />
<glyph unicode="&#xd9;" horiz-adv-x="572" d="M286 -6Q224 -6 175 15T97 84T68 212V702Q68 717 80 724T110 731Q126 731 139 724T152 702V212Q152 139 187 105T286 70Q349 70 384 104T420 212V702Q420 717 433 724T462 731Q478 731 491 724T504 702V212Q504 132
475 85T397 16T286 -6ZM329 835Q327 835 324 836T318 839L205 897Q191 905 191 921Q191 934 199 944T219 955Q224 955 229 953L346 891Q359 885 359 869Q359 857 351 846T329 835Z" />
<glyph unicode="&#xda;" horiz-adv-x="572" d="M286 -6Q224 -6 175 15T97 84T68 212V702Q68 717 80 724T110 731Q126 731 139 724T152 702V212Q152 139 187 105T286 70Q349 70 384 104T420 212V702Q420 717 433 724T462 731Q478 731 491 724T504 702V212Q504 132
475 85T397 16T286 -6ZM246 835Q234 835 225 846T216 869Q216 885 229 891L346 953Q352 955 356 955Q369 955 376 945T384 921Q384 905 370 897L257 839Q254 838 252 837T246 835Z" />
<glyph unicode="&#xdb;" horiz-adv-x="572" d="M286 -6Q224 -6 175 15T97 84T68 212V702Q68 717 80 724T110 731Q126 731 139 724T152 702V212Q152 139 187 105T286 70Q349 70 384 104T420 212V702Q420 717 433 724T462 731Q478 731 491 724T504 702V212Q504 132
475 85T397 16T286 -6ZM173 839Q164 839 157 848T150 868Q150 876 154 883T165 894L269 950Q278 955 286 955Q295 955 303 950L407 895Q416 891 419 883T423 867Q423 856 417 848T400 839Q398 839 396 840T390 842L286 898L182 842Q180 841 178 840T173 839Z" />
<glyph unicode="&#xdc;" horiz-adv-x="572" d="M286 -6Q224 -6 175 15T97 84T68 212V702Q68 717 80 724T110 731Q126 731 139 724T152 702V212Q152 139 187 105T286 70Q349 70 384 104T420 212V702Q420 717 433 724T462 731Q478 731 491 724T504 702V212Q504 132
475 85T397 16T286 -6ZM351 839Q334 839 323 851T311 881Q311 898 322 910T351 922Q368 922 379 910T391 881Q391 864 380 852T351 839ZM221 839Q204 839 192 851T180 881Q180 898 192 910T221 922Q238 922 249 910T261 881Q261 864 250 852T221 839Z" />
<glyph unicode="&#xdd;" horiz-adv-x="541" d="M270 0Q255 0 242 7T228 30V283Q228 289 226 293L19 679Q17 684 16 688T15 696Q15 706 23 714T42 726T65 731Q76 731 82 726T95 709L270 366L446 709Q452 720 459 725T476 731Q487 731 498 727T518 714T526 696Q526
693 525 689T522 679L315 293Q312 289 312 283V30Q312 15 299 8T270 0ZM230 835Q218 835 209 846T200 869Q200 885 213 891L330 953Q336 955 340 955Q353 955 360 945T368 921Q368 905 354 897L241 839Q238 838 236 837T230 835Z" />
<glyph unicode="&#xde;" horiz-adv-x="501" d="M113 0Q95 0 83 9T71 30V709Q71 723 83 730T111 738Q130 738 142 730T154 709V544Q171 574 205 597T290 620Q337 620 376 599T440 540T464 449V306Q464 255 440 216T377 155T295 133Q265 133 236 143T186 172T154
212V30Q154 19 142 10T113 0ZM271 208Q299 208 324 219T365 253T381 306V449Q381 479 366 500T325 533T271 545Q241 545 214 533T171 500T154 449V301Q154 281 169 260T211 223T271 208Z" />
<glyph unicode="&#xdf;" horiz-adv-x="564" d="M335 -20Q322 -20 304 -19T270 -12T242 2T231 28Q231 37 233 46T241 61T254 68Q265 68 281 60T329 51Q384 51 416 88T448 198V213Q448 254 433 288T386 346T304 375Q288 378 279 384T269 410Q269 430 279 435T305
444Q329 447 343 459T365 490T376 528T379 565Q379 623 355 658T277 693Q241 693 220 677T190 634T181 578V29Q181 16 169 8T138 0Q121 0 110 8T98 29V409H30Q18 409 11 418T4 441Q4 454 11 464T30 474H98V578Q98 629 115 672T171 741T273 768Q322 768 362 749T426
689T450 586Q450 552 442 518T419 458T380 420Q415 414 448 387T505 316T528 219V203Q528 128 501 79T429 5T335 -20Z" />
<glyph unicode="&#xe0;" horiz-adv-x="447" d="M163 -8Q107 -8 68 24T28 125Q28 180 58 210T140 252T262 264H310V285Q310 315 299 343T265 390T200 409Q165 409 145 402T112 388T91 380Q76 380 68 394T60 422Q60 438 82 451T137 472T202 480Q272 480 314 452T374
380T393 286V30Q393 18 382 9T352 0Q336 0 325 9T314 30V70Q288 40 251 16T163 -8ZM189 59Q218 59 245 75T291 115T310 161V213H275Q233 213 196 208T135 187T112 134Q112 95 134 77T189 59ZM259 838Q257 838 254 839T248 842L135 900Q121 908 121 924Q121 937
129 947T149 958Q154 958 159 956L276 894Q289 888 289 872Q289 860 281 849T259 838Z" />
<glyph unicode="&#xe1;" horiz-adv-x="447" d="M163 -8Q107 -8 68 24T28 125Q28 180 58 210T140 252T262 264H310V285Q310 315 299 343T265 390T200 409Q165 409 145 402T112 388T91 380Q76 380 68 394T60 422Q60 438 82 451T137 472T202 480Q272 480 314 452T374
380T393 286V30Q393 18 382 9T352 0Q336 0 325 9T314 30V70Q288 40 251 16T163 -8ZM189 59Q218 59 245 75T291 115T310 161V213H275Q233 213 196 208T135 187T112 134Q112 95 134 77T189 59ZM176 582Q164 582 155 593T146 616Q146 632 159 638L276 700Q282 702
286 702Q299 702 306 692T314 668Q314 652 300 644L187 586Q184 585 182 584T176 582Z" />
<glyph unicode="&#xe2;" horiz-adv-x="447" d="M163 -8Q107 -8 68 24T28 125Q28 180 58 210T140 252T262 264H310V285Q310 315 299 343T265 390T200 409Q165 409 145 402T112 388T91 380Q76 380 68 394T60 422Q60 438 82 451T137 472T202 480Q272 480 314 452T374
380T393 286V30Q393 18 382 9T352 0Q336 0 325 9T314 30V70Q288 40 251 16T163 -8ZM189 59Q218 59 245 75T291 115T310 161V213H275Q233 213 196 208T135 187T112 134Q112 95 134 77T189 59ZM103 842Q94 842 87 851T80 871Q80 879 84 886T95 897L199 953Q208 958
216 958Q225 958 233 953L337 898Q346 894 349 886T353 870Q353 859 347 851T330 842Q328 842 326 843T320 845L216 901L112 845Q110 844 108 843T103 842Z" />
<glyph unicode="&#xe3;" horiz-adv-x="447" d="M163 -8Q107 -8 68 24T28 125Q28 180 58 210T140 252T262 264H310V285Q310 315 299 343T265 390T200 409Q165 409 145 402T112 388T91 380Q76 380 68 394T60 422Q60 438 82 451T137 472T202 480Q272 480 314 452T374
380T393 286V30Q393 18 382 9T352 0Q336 0 325 9T314 30V70Q288 40 251 16T163 -8ZM189 59Q218 59 245 75T291 115T310 161V213H275Q233 213 196 208T135 187T112 134Q112 95 134 77T189 59ZM291 857Q262 857 242 865T201 882T155 890Q134 890 120 883T97 869T79
861Q71 861 66 866T59 878T56 890Q56 907 65 918T89 937T118 947T143 951Q171 951 191 943T231 927T278 918Q300 918 312 925T333 938T351 945Q360 945 365 940T372 929T375 917Q375 899 366 888T343 869T315 860T291 857Z" />
<glyph unicode="&#xe4;" horiz-adv-x="447" d="M163 -8Q107 -8 68 24T28 125Q28 180 58 210T140 252T262 264H310V285Q310 315 299 343T265 390T200 409Q165 409 145 402T112 388T91 380Q76 380 68 394T60 422Q60 438 82 451T137 472T202 480Q272 480 314 452T374
380T393 286V30Q393 18 382 9T352 0Q336 0 325 9T314 30V70Q288 40 251 16T163 -8ZM189 59Q218 59 245 75T291 115T310 161V213H275Q233 213 196 208T135 187T112 134Q112 95 134 77T189 59ZM281 842Q264 842 253 854T241 884Q241 901 252 913T281 925Q298 925
309 913T321 884Q321 867 310 855T281 842ZM151 842Q134 842 122 854T110 884Q110 901 122 913T151 925Q168 925 179 913T191 884Q191 867 180 855T151 842Z" />
<glyph unicode="&#xe5;" horiz-adv-x="447" d="M163 -8Q107 -8 68 24T28 125Q28 180 58 210T140 252T262 264H310V285Q310 315 299 343T265 390T200 409Q165 409 145 402T112 388T91 380Q76 380 68 394T60 422Q60 438 82 451T137 472T202 480Q272 480 314 452T374
380T393 286V30Q393 18 382 9T352 0Q336 0 325 9T314 30V70Q288 40 251 16T163 -8ZM189 59Q218 59 245 75T291 115T310 161V213H275Q233 213 196 208T135 187T112 134Q112 95 134 77T189 59ZM216 828Q190 828 169 841T135 877T122 925Q122 950 134 971T168 1006T216
1020Q241 1020 262 1007T297 972T310 925Q310 900 297 878T263 842T216 828ZM216 866Q238 866 254 884T271 925Q271 945 255 962T216 980Q192 980 176 962T160 925Q160 903 176 885T216 866Z" />
<glyph unicode="&#xe6;" horiz-adv-x="734" d="M173 -8Q134 -8 101 6T48 50T28 124Q28 180 57 210T139 252T260 264H308V286Q308 315 298 343T263 391T197 410Q164 410 144 403T111 388T89 380Q75 380 67 394T58 423Q58 439 80 451T135 472T201 480Q260 480 297
455T355 391Q379 430 419 455T507 480Q541 480 575 469T638 433T683 373T700 287Q700 254 691 238T662 218T612 213H393V183Q393 127 433 95T533 62Q570 62 592 72T629 91T655 101Q665 101 672 95T684 81T689 63Q689 47 666 31T605 3T524 -8Q468 -8 420 18T345
92Q312 41 265 17T173 -8ZM188 59Q220 59 247 75T291 115T308 161V213H273Q230 213 193 208T134 186T111 132Q111 95 133 77T188 59ZM393 269H577Q605 269 613 275T621 300Q621 331 607 356T566 398T507 414Q476 414 450 400T409 361T393 305V269Z" />
<glyph unicode="&#xe7;" horiz-adv-x="418" d="M243 -8Q174 -8 130 18T64 87T42 186V286Q42 340 63 384T129 454T242 480Q286 480 319 469T370 442T388 411Q388 403 384 394T372 377T354 370Q344 370 333 379T302 396T247 405Q186 405 156 373T125 286V186Q125
131 155 99T248 67Q284 67 304 76T335 94T358 103Q369 103 377 97T389 81T394 63Q394 48 375 32T322 4T243 -8ZM250 -212Q235 -212 217 -209T184 -200T170 -185Q170 -182 172 -175T178 -163T188 -157Q194 -157 207 -164T244 -171Q272 -171 284 -161T296 -134Q296
-115 281 -105T237 -93L194 -90L220 9H265L247 -58Q298 -59 320 -81T343 -131Q343 -149 334 -167T304 -199T250 -212Z" />
<glyph unicode="&#xe8;" horiz-adv-x="465" d="M264 -8Q199 -8 149 16T70 84T41 186V291Q41 342 68 385T141 454T240 480Q292 480 335 456T405 391T432 296Q432 256 419 239T386 217T344 213H124V183Q124 127 164 95T267 62Q304 62 326 72T362 91T387 101Q398
101 405 95T417 79T421 63Q421 50 402 34T348 5T264 -8ZM124 269H309Q336 269 344 275T353 301Q353 331 339 356T298 398T239 414Q208 414 182 400T140 360T124 305V269ZM282 584Q280 584 277 585T271 588L158 646Q144 654 144 670Q144 683 152 693T172 704Q177
704 182 702L299 640Q312 634 312 618Q312 606 304 595T282 584Z" />
<glyph unicode="&#xe9;" horiz-adv-x="465" d="M264 -8Q199 -8 149 16T70 84T41 186V291Q41 342 68 385T141 454T240 480Q292 480 335 456T405 391T432 296Q432 256 419 239T386 217T344 213H124V183Q124 127 164 95T267 62Q304 62 326 72T362 91T387 101Q398
101 405 95T417 79T421 63Q421 50 402 34T348 5T264 -8ZM124 269H309Q336 269 344 275T353 301Q353 331 339 356T298 398T239 414Q208 414 182 400T140 360T124 305V269ZM187 584Q175 584 166 595T157 618Q157 634 170 640L287 702Q293 704 297 704Q310 704 317
694T325 670Q325 654 311 646L198 588Q195 587 193 586T187 584Z" />
<glyph unicode="&#xea;" horiz-adv-x="465" d="M264 -8Q199 -8 149 16T70 84T41 186V291Q41 342 68 385T141 454T240 480Q292 480 335 456T405 391T432 296Q432 256 419 239T386 217T344 213H124V183Q124 127 164 95T267 62Q304 62 326 72T362 91T387 101Q398
101 405 95T417 79T421 63Q421 50 402 34T348 5T264 -8ZM124 269H309Q336 269 344 275T353 301Q353 331 339 356T298 398T239 414Q208 414 182 400T140 360T124 305V269ZM122 843Q113 843 106 852T99 872Q99 880 103 887T114 898L218 954Q227 959 235 959Q244 959
252 954L356 899Q365 895 368 887T372 871Q372 860 366 852T349 843Q347 843 345 844T339 846L235 902L131 846Q129 845 127 844T122 843Z" />
<glyph unicode="&#xeb;" horiz-adv-x="465" d="M264 -8Q199 -8 149 16T70 84T41 186V291Q41 342 68 385T141 454T240 480Q292 480 335 456T405 391T432 296Q432 256 419 239T386 217T344 213H124V183Q124 127 164 95T267 62Q304 62 326 72T362 91T387 101Q398
101 405 95T417 79T421 63Q421 50 402 34T348 5T264 -8ZM124 269H309Q336 269 344 275T353 301Q353 331 339 356T298 398T239 414Q208 414 182 400T140 360T124 305V269ZM301 588Q284 588 273 600T261 630Q261 647 272 659T301 671Q318 671 329 659T341 630Q341
613 330 601T301 588ZM171 588Q154 588 142 600T130 630Q130 647 142 659T171 671Q188 671 199 659T211 630Q211 613 200 601T171 588Z" />
<glyph unicode="&#xec;" horiz-adv-x="200" d="M100 0Q82 0 71 9T59 30V445Q59 458 70 466T100 474Q117 474 129 466T142 445V30Q142 19 130 10T100 0ZM147 839Q145 839 142 840T136 843L23 901Q9 909 9 925Q9 938 17 948T37 959Q42 959 47 957L164 895Q177 889
177 873Q177 861 169 850T147 839Z" />
<glyph unicode="&#xed;" horiz-adv-x="200" d="M100 0Q82 0 71 9T59 30V445Q59 458 70 466T100 474Q117 474 129 466T142 445V30Q142 19 130 10T100 0ZM56 839Q44 839 35 850T26 873Q26 889 39 895L156 957Q162 959 166 959Q179 959 186 949T194 925Q194 909 180
901L67 843Q64 842 62 841T56 839Z" />
<glyph unicode="&#xee;" horiz-adv-x="200" d="M100 0Q82 0 71 9T59 30V445Q59 458 70 466T100 474Q117 474 129 466T142 445V30Q142 19 130 10T100 0ZM239 843Q230 843 223 852T216 872Q216 880 220 887T231 898L335 954Q344 959 352 959Q361 959 369 954L473
899Q482 895 485 887T489 871Q489 860 483 852T466 843Q464 843 462 844T456 846L352 902L248 846Q246 845 244 844T239 843Z" />
<glyph unicode="&#xef;" horiz-adv-x="200" d="M100 0Q82 0 71 9T59 30V445Q59 458 70 466T100 474Q117 474 129 466T142 445V30Q142 19 130 10T100 0ZM424 588Q407 588 396 600T384 630Q384 647 395 659T424 671Q441 671 452 659T464 630Q464 613 453 601T424
588ZM294 588Q277 588 265 600T253 630Q253 647 265 659T294 671Q311 671 322 659T334 630Q334 613 323 601T294 588Z" />
<glyph unicode="&#xf0;" horiz-adv-x="491" d="M239 -8Q199 -8 164 8T100 51T57 113T41 186V288Q41 340 65 383T129 453T218 480Q248 480 275 470T324 441T354 398Q350 461 333 511T291 597L215 553Q211 550 204 550Q193 550 183 561T173 586Q173 599 185 605L253
645Q234 666 211 676T167 688Q160 692 154 699T148 719Q148 727 152 736T166 753T192 760Q224 760 259 742T326 688L393 728Q398 731 403 731Q416 731 425 720T435 696Q435 683 423 676L360 638Q395 583 416 510T437 356V186Q437 136 410 92T338 20T239 -8ZM239
67Q271 67 297 84T338 128T354 186V291Q354 322 338 347T296 389T238 405Q206 405 180 388T139 344T124 288V186Q124 156 139 129T181 84T239 67Z" />
<glyph unicode="&#xf1;" horiz-adv-x="502" d="M100 0Q82 0 71 9T59 30V445Q59 458 70 466T100 474Q116 474 127 466T138 445V404Q154 433 188 456T272 480Q320 480 360 454T424 384T448 288V30Q448 15 435 8T406 0Q391 0 378 7T365 30V288Q365 317 350 344T308
388T251 405Q224 405 199 391T158 351T142 288V30Q142 19 130 10T100 0ZM326 852Q297 852 277 860T236 877T190 885Q169 885 155 878T132 864T114 856Q106 856 101 861T94 873T91 885Q91 902 100 913T124 932T153 942T178 946Q206 946 226 938T266 922T313 913Q335
913 347 920T368 933T386 940Q395 940 400 935T407 924T410 912Q410 894 401 883T378 864T350 855T326 852Z" />
<glyph unicode="&#xf2;" horiz-adv-x="477" d="M238 -8Q185 -8 140 19T68 91T41 186V288Q41 339 67 382T139 453T238 480Q291 480 336 454T408 384T436 288V186Q436 136 409 92T336 20T238 -8ZM238 67Q270 67 295 84T337 128T353 186V288Q353 317 338 344T296
388T238 405Q206 405 180 388T139 344T124 288V186Q124 156 139 129T180 84T238 67ZM286 584Q284 584 281 585T275 588L162 646Q148 654 148 670Q148 683 156 693T176 704Q181 704 186 702L303 640Q316 634 316 618Q316 606 308 595T286 584Z" />
<glyph unicode="&#xf3;" horiz-adv-x="477" d="M238 -8Q185 -8 140 19T68 91T41 186V288Q41 339 67 382T139 453T238 480Q291 480 336 454T408 384T436 288V186Q436 136 409 92T336 20T238 -8ZM238 67Q270 67 295 84T337 128T353 186V288Q353 317 338 344T296
388T238 405Q206 405 180 388T139 344T124 288V186Q124 156 139 129T180 84T238 67ZM185 583Q173 583 164 594T155 617Q155 633 168 639L285 701Q291 703 295 703Q308 703 315 693T323 669Q323 653 309 645L196 587Q193 586 191 585T185 583Z" />
<glyph unicode="&#xf4;" horiz-adv-x="477" d="M238 -8Q185 -8 140 19T68 91T41 186V288Q41 339 67 382T139 453T238 480Q291 480 336 454T408 384T436 288V186Q436 136 409 92T336 20T238 -8ZM238 67Q270 67 295 84T337 128T353 186V288Q353 317 338 344T296
388T238 405Q206 405 180 388T139 344T124 288V186Q124 156 139 129T180 84T238 67ZM125 588Q116 588 109 597T102 617Q102 625 106 632T117 643L221 699Q230 704 238 704Q247 704 255 699L359 644Q368 640 371 632T375 616Q375 605 369 597T352 588Q350 588 348
589T342 591L238 647L134 591Q132 590 130 589T125 588Z" />
<glyph unicode="&#xf5;" horiz-adv-x="477" d="M238 -8Q185 -8 140 19T68 91T41 186V288Q41 339 67 382T139 453T238 480Q291 480 336 454T408 384T436 288V186Q436 136 409 92T336 20T238 -8ZM238 67Q270 67 295 84T337 128T353 186V288Q353 317 338 344T296
388T238 405Q206 405 180 388T139 344T124 288V186Q124 156 139 129T180 84T238 67ZM314 603Q285 603 265 611T224 628T178 636Q157 636 143 629T120 615T102 607Q94 607 89 612T82 624T79 636Q79 653 88 664T112 683T141 693T166 697Q194 697 214 689T254 673T301
664Q323 664 335 671T356 684T374 691Q383 691 388 686T395 675T398 663Q398 645 389 634T366 615T338 606T314 603Z" />
<glyph unicode="&#xf6;" horiz-adv-x="477" d="M238 -8Q185 -8 140 19T68 91T41 186V288Q41 339 67 382T139 453T238 480Q291 480 336 454T408 384T436 288V186Q436 136 409 92T336 20T238 -8ZM238 67Q270 67 295 84T337 128T353 186V288Q353 317 338 344T296
388T238 405Q206 405 180 388T139 344T124 288V186Q124 156 139 129T180 84T238 67ZM305 588Q288 588 277 600T265 630Q265 647 276 659T305 671Q322 671 333 659T345 630Q345 613 334 601T305 588ZM175 588Q158 588 146 600T134 630Q134 647 146 659T175 671Q192
671 203 659T215 630Q215 613 204 601T175 588Z" />
<glyph unicode="&#xf7;" horiz-adv-x="459" d="M70 205Q57 205 49 214T40 239Q40 254 48 264T70 274H388Q400 274 409 264T419 239Q419 224 410 215T388 205H70ZM226 23Q205 23 189 38T173 74Q173 96 189 110T226 125Q246 125 262 111T278 74Q278 54 262 39T226
23ZM226 354Q205 354 189 369T173 405Q173 426 189 441T226 456Q246 456 262 441T278 405Q278 384 262 369T226 354Z" />
<glyph unicode="&#xf8;" horiz-adv-x="477" d="M238 -8Q185 -8 140 19T68 91T41 186V288Q41 339 67 382T139 453T238 480Q291 480 336 454T408 384T436 288V186Q436 136 409 92T336 20T238 -8ZM238 67Q270 67 295 84T337 128T353 186V288Q353 317 338 344T296
388T238 405Q206 405 180 388T139 344T124 288V186Q124 156 139 129T180 84T238 67ZM85 -32Q77 -32 70 -26T63 -11Q63 -4 67 2L98 53L340 451L369 499Q375 509 386 509Q395 509 402 502T410 485Q410 478 405 470L376 424L132 25L102 -22Q97 -32 85 -32Z" />
<glyph unicode="&#xf9;" horiz-adv-x="504" d="M253 -8Q198 -8 153 19T81 90T54 184V444Q54 455 66 464T96 474Q113 474 125 465T137 444V184Q137 155 152 128T194 84T252 67Q284 67 310 84T351 128T366 184V445Q366 457 379 465T408 474Q427 474 438 466T449
445V184Q449 133 423 90T351 19T253 -8ZM295 577Q293 577 290 578T284 581L171 639Q157 647 157 663Q157 676 165 686T185 697Q190 697 195 695L312 633Q325 627 325 611Q325 599 317 588T295 577Z" />
<glyph unicode="&#xfa;" horiz-adv-x="504" d="M253 -8Q198 -8 153 19T81 90T54 184V444Q54 455 66 464T96 474Q113 474 125 465T137 444V184Q137 155 152 128T194 84T252 67Q284 67 310 84T351 128T366 184V445Q366 457 379 465T408 474Q427 474 438 466T449
445V184Q449 133 423 90T351 19T253 -8ZM212 578Q200 578 191 589T182 612Q182 628 195 634L312 696Q318 698 322 698Q335 698 342 688T350 664Q350 648 336 640L223 582Q220 581 218 580T212 578Z" />
<glyph unicode="&#xfb;" horiz-adv-x="504" d="M253 -8Q198 -8 153 19T81 90T54 184V444Q54 455 66 464T96 474Q113 474 125 465T137 444V184Q137 155 152 128T194 84T252 67Q284 67 310 84T351 128T366 184V445Q366 457 379 465T408 474Q427 474 438 466T449
445V184Q449 133 423 90T351 19T253 -8ZM139 837Q130 837 123 846T116 866Q116 874 120 881T131 892L235 948Q244 953 252 953Q261 953 269 948L373 893Q382 889 385 881T389 865Q389 854 383 846T366 837Q364 837 362 838T356 840L252 896L148 840Q146 839 144
838T139 837Z" />
<glyph unicode="&#xfc;" horiz-adv-x="504" d="M253 -8Q198 -8 153 19T81 90T54 184V444Q54 455 66 464T96 474Q113 474 125 465T137 444V184Q137 155 152 128T194 84T252 67Q284 67 310 84T351 128T366 184V445Q366 457 379 465T408 474Q427 474 438 466T449
445V184Q449 133 423 90T351 19T253 -8ZM317 581Q300 581 289 593T277 623Q277 640 288 652T317 664Q334 664 345 652T357 623Q357 606 346 594T317 581ZM187 581Q170 581 158 593T146 623Q146 640 158 652T187 664Q204 664 215 652T227 623Q227 606 216 594T187
581Z" />
<glyph unicode="&#xfd;" d="M50 -229Q34 -229 23 -222T12 -192Q12 -178 17 -167T36 -156Q58 -156 80 -144T122 -107T158 -49T180 24L14 429Q11 435 11 440Q11 451 20 460T41 474T65 480Q73 480 81 476T91 463L224 115L343 463Q346 472 353 476T369 480Q379 480
391 475T413 460T422 439Q422 433 420 429L267 22Q252 -19 235 -63T195 -144T136 -205T50 -229ZM177 578Q165 578 156 589T147 612Q147 628 160 634L277 696Q283 698 287 698Q300 698 307 688T315 664Q315 648 301 640L188 582Q185 581 183 580T177 578Z" />
<glyph unicode="&#xfe;" horiz-adv-x="494" d="M100 -229Q83 -229 72 -220T60 -199V731Q60 744 71 752T100 760Q118 760 130 752T143 731V404Q159 433 192 456T273 480Q323 480 364 454T429 384T453 288V186Q453 136 429 92T364 20T276 -8Q231 -8 195 15T143 70V-199Q143
-210 131 -219T100 -229ZM256 67Q286 67 312 84T354 129T370 186V288Q370 317 354 344T312 388T254 405Q227 405 202 391T160 351T143 288V159Q143 146 157 124T197 85T256 67Z" />
<glyph unicode="&#xff;" d="M50 -229Q34 -229 23 -222T12 -192Q12 -178 17 -167T36 -156Q58 -156 80 -144T122 -107T158 -49T180 24L14 429Q11 435 11 440Q11 451 20 460T41 474T65 480Q73 480 81 476T91 463L224 115L343 463Q346 472 353 476T369 480Q379 480
391 475T413 460T422 439Q422 433 420 429L267 22Q252 -19 235 -63T195 -144T136 -205T50 -229ZM283 837Q266 837 255 849T243 879Q243 896 254 908T283 920Q300 920 311 908T323 879Q323 862 312 850T283 837ZM153 837Q136 837 124 849T112 879Q112 896 124 908T153
920Q170 920 181 908T193 879Q193 862 182 850T153 837Z" />
<glyph unicode="&#x2013;" horiz-adv-x="463" d="M71 205Q59 205 51 215T42 240Q42 256 50 266T71 276H391Q403 276 412 266T421 240Q421 225 412 215T391 205H71Z" />
<glyph unicode="&#x2014;" horiz-adv-x="744" d="M71 205Q59 205 51 215T42 240Q42 256 50 266T71 276H672Q683 276 692 266T702 240Q702 225 693 215T672 205H71Z" />
<glyph unicode="&#x2018;" horiz-adv-x="166" d="M82 554Q61 554 46 569T30 606Q30 611 32 620T40 644T53 679T74 728Q78 735 83 738T95 741Q105 741 114 735T124 716Q124 711 122 706L101 654Q116 648 125 635T134 606Q134 585 119 570T82 554Z" />
<glyph unicode="&#x2019;" horiz-adv-x="165" d="M73 554Q63 554 53 560T43 578Q43 584 45 588L66 640Q52 647 43 660T34 689Q34 710 49 725T86 741Q107 741 122 726T138 689Q138 684 136 674T128 650T114 615T93 567Q90 560 84 557T73 554Z" />
<glyph unicode="&#x201a;" horiz-adv-x="177" d="M75 -89Q65 -89 55 -83T45 -64Q45 -58 48 -54L68 -2Q54 4 45 17T36 46Q36 68 51 83T88 99Q109 99 124 84T140 47Q140 42 138 32T130 8T117 -27T95 -75Q93 -82 87 -85T75 -89Z" />
<glyph unicode="&#x201c;" horiz-adv-x="327" d="M242 554Q221 554 206 569T190 606Q190 611 192 620T200 644T213 679T235 728Q238 735 244 738T255 741Q265 741 275 735T285 716Q285 711 283 706L262 654Q276 648 285 635T294 606Q294 585 279 570T242 554ZM82
554Q61 554 46 569T30 606Q30 611 32 620T40 644T53 679T74 728Q78 735 83 738T95 741Q105 741 114 735T124 716Q124 711 122 706L101 654Q116 648 125 635T134 606Q134 585 119 570T82 554Z" />
<glyph unicode="&#x201d;" horiz-adv-x="325" d="M233 554Q223 554 213 560T203 578Q203 584 206 588L226 640Q212 647 203 660T194 689Q194 710 209 725T246 741Q267 741 282 726T298 689Q298 684 296 674T288 650T275 615T253 567Q251 560 245 557T233 554ZM73
554Q63 554 53 560T43 578Q43 584 45 588L66 640Q52 647 43 660T34 689Q34 710 49 725T86 741Q107 741 122 726T138 689Q138 684 136 674T128 650T114 615T93 567Q90 560 84 557T73 554Z" />
<glyph unicode="&#x201e;" horiz-adv-x="337" d="M235 -89Q225 -89 216 -83T206 -64Q206 -58 208 -54L229 -2Q214 4 206 17T197 46Q197 68 212 83T249 99Q270 99 285 84T300 47Q300 42 298 32T291 8T277 -27T256 -75Q253 -82 247 -85T235 -89ZM75 -89Q65 -89 55
-83T45 -64Q45 -58 48 -54L68 -2Q54 4 45 17T36 46Q36 68 51 83T88 99Q109 99 124 84T140 47Q140 42 138 32T130 8T117 -27T95 -75Q93 -82 87 -85T75 -89Z" />
<glyph unicode="&#x2022;" horiz-adv-x="316" d="M158 189Q127 189 101 204T60 245T44 300Q44 329 59 354T101 394T158 410Q189 410 215 395T256 354T272 300Q272 270 257 245T215 205T158 189Z" />
<glyph unicode="&#x2039;" horiz-adv-x="244" d="M157 74Q138 74 131 87L47 243Q41 255 37 262T32 277Q32 285 36 292T47 311L131 468Q138 481 158 481Q171 481 182 474T200 458T207 439Q207 434 204 428L123 277L204 126Q207 122 207 115Q207 106 200 97T182 81T157 74Z" />
<glyph unicode="&#x203a;" horiz-adv-x="244" d="M87 74Q74 74 63 80T44 96T37 115Q37 122 40 126L121 277L40 428Q37 434 37 439Q37 449 43 458T61 474T86 481Q107 481 113 468L197 311Q203 300 207 293T211 277Q211 269 207 262T197 243L113 87Q106 74 87 74Z" />
</font>
</defs>
</svg>
